谁是超级英雄[中文字幕].Super.Heros.Malgre.Lui.2021.1080p.BluRay.DTS.x265-10bit-ENTHD 4.45GB

版主小s 3月前 170

✔资源类型:暂未分类   ✔电影年份:2022   ✔电影地区:其他   ✔电影分类:喜剧

◎译  名 谁是超级英雄 / Superwho?
◎片  名 Super-héros malgré lui
◎年  代 2022
◎产  地 法国 / 比利时
◎类  别 喜剧 / 动作
◎语  言 法语
◎上映日期 2022-02-09(法国)
◎IMDb链接 https://www.imdb.com/title/tt13774454/
◎豆瓣评分 7.4/10 (1909人评价)
◎豆瓣链接 https://movie.douban.com/subject/35212079/
◎片  长 82分钟(法国)
◎导  演 菲利普·拉肖 Philippe Lacheau (id:1341144)
◎编  剧 朱利安·阿鲁蒂 Julien Arruti (id:1359875)
       皮埃尔·迪当 Pierre Dudan (id:1080652)
       菲利普·拉肖 Philippe Lacheau (id:1341144)
       皮埃尔·拉苏 Pierre Lacheau (id:1379359)
◎演  员 菲利普·拉肖 Philippe Lacheau (id:1341144)
       阿马尔·维克德 Amr Waked (id:1300271)
       让·雨果·安格拉德 Jean-Hugues Anglade (id:1025347)
       艾洛蒂·丰唐 élodie Fontan (id:1088014)
       乔治斯·科拉菲斯 Georges Corraface (id:1036849)
       塔雷克·布达里 Tarek Boudali (id:1341145)
       布鲁诺·洛歇 Bruno Lochet (id:1125526)
       Michel Crémadès Michel Crémadès (id:1077372)
       菲烈·卡特林 Philippe Katerine (id:1037786)
       爱丽丝·杜富尔 Alice Dufour (id:1387670)
       朱利安·阿鲁蒂 Julien Arruti (id:1359875)

◎简  介
  A struggling actor who seems doomed to lead the life of a loser. When finally gets a lead role as a superhero named "Badman," he feels like everything is possible but fate strikes again.
  1. ##### MediaInfo ######
  2. General
  3. Unique ID                                : 261929627264029651127035720967709024236 (0xC50DCFADE21E43E0F26F26644FD05FEC)
  4. Complete name                            : Super.Heros.Malgre.Lui.2021.1080p.BluRay.DTS.x265-10bit-ENTHD.mkv
  5. Format                                   : Matroska
  6. Format version                           : Version 4
  7. File size                                : 4.45 GiB
  8. Duration                                 : 1 h 22 min
  9. Overall bit rate                         : 7 746 kb/s
  10. Movie name                               : Super Heros Malgre Lui 2021 1080p BluRay DTS x265-10bit-HDS
  11. Encoded date                             : UTC 2022-06-19 09:08:32
  12. Writing application                      : mkvmerge v67.0.0 ('Under Stars') 64-bit
  13. Writing library                          : libebml v1.4.2 + libmatroska v1.6.4
  14. Video
  15. ID                                       : 1
  16. Format                                   : HEVC
  17. Format/Info                              : High Efficiency Video Coding
  18. Format profile                           : Main 10@L5.1@High
  19. Codec ID                                 : V_MPEGH/ISO/HEVC
  20. Duration                                 : 1 h 22 min
  21. Bit rate                                 : 6 220 kb/s
  22. Width                                    : 1 920 pixels
  23. Height                                   : 804 pixels
  24. Display aspect ratio                     : 2.40:1
  25. Frame rate mode                          : Constant
  26. Frame rate                               : 24.000 FPS
  27. Color space                              : YUV
  28. Chroma subsampling                       : 4:2:0
  29. Bit depth                                : 10 bits
  30. Bits/(Pixel*Frame)                       : 0.168
  31. Stream size                              : 3.58 GiB (80%)
  32. Title                                    : meyu@HDSky
  33. Writing library                          : x265 - H.265/HEVC codec
  34. Default                                  : Yes
  35. Forced                                   : No
  36. Audio
  37. ID                                       : 2
  38. Format                                   : DTS
  39. Format/Info                              : Digital Theater Systems
  40. Codec ID                                 : A_DTS
  41. Duration                                 : 1 h 22 min
  42. Bit rate mode                            : Constant
  43. Bit rate                                 : 1 509 kb/s
  44. Channel(s)                               : 6 channels
  45. Channel layout                           : C L R Ls Rs LFE
  46. Sampling rate                            : 48.0 kHz
  47. Frame rate                               : 93.750 FPS (512 SPF)
  48. Bit depth                                : 24 bits
  49. Compression mode                         : Lossy
  50. Stream size                              : 889 MiB (19%)
  51. Title                                    : French
  52. Language                                 : French
  53. Default                                  : Yes
  54. Forced                                   : No
  55. Text
  56. ID                                       : 3
  57. Format                                   : PGS
  58. Muxing mode                              : zlib
  59. Codec ID                                 : S_HDMV/PGS
  60. Codec ID/Info                            : Picture based subtitle format used on BDs/HD-DVDs
  61. Duration                                 : 1 h 16 min
  62. Bit rate                                 : 28.0 kb/s
  63. Count of elements                        : 1936
  64. Stream size                              : 15.4 MiB (0%)
  65. Title                                    : CHS
  66. Language                                 : Chinese
  67. Default                                  : Yes
  68. Forced                                   : No
  69. Menu
  70. 00:00:00.000                             : en:第 01 章
  71. 00:06:33.292                             : en:第 02 章
  72. 00:13:30.542                             : en:第 03 章
  73. 00:20:53.792                             : en:第 04 章
  74. 00:32:05.833                             : en:第 05 章
  75. 00:37:02.667                             : en:第 06 章
  76. 00:42:30.833                             : en:第 07 章
  77. 00:48:20.542                             : en:第 08 章
  78. 00:54:59.708                             : en:第 09 章
  79. 01:02:49.000                             : en:第 10 章
  80. 01:10:47.083                             : en:第 11 章
  81. 01:18:04.625                             : en:第 12 章





此处一般会放置磁力链或种子下载链接,不过此链接需要注册会员才能看到,点击“立即注册”
磁力链下载【下载链接仅对注册会员开放,登陆后可见】
BT9527电影天堂 1、BT9527电影天堂提供的BT文件均来源于互联网抓取,只供网友学习交流、技术提升使用。
2、我们遵守BitTorrent点对点协议原则,任何版权问题请联系原资源发布商,我们不处理任何版权纠纷,谢谢!如有争议请联系邮箱:BT9527#hotmail.com(#换成@)
3、如果您发现某页面或地址有错误,请联系站长邮箱BT9527#hotmail.com(#换成@),我们会尽快处理。您的热心是对BT9527电影天堂最大的支持。
4、本站建议去正规影院观看电影以支持电影行业发展。
最新回复 (0)

你可以在 登录 or 注册 后,对此帖发表评论!

返回
发新帖