内特拉姆[简繁英字幕].Nitram.2021.1080p.BluRay.DTS.x265-10bit-ENTHD 6.65GB

版主小s 13天前 38

✔资源类型:暂未分类   ✔电影年份:2021   ✔电影地区:其他   ✔电影分类:惊悚

◎译  名 内特拉姆 / 恶的序章(台)
◎片  名 Nitram
◎年  代 2021
◎产  地 澳大利亚
◎类  别 惊悚
◎语  言 英语
◎上映日期 2021-07-16(戛纳电影节) / 2021-09-30(澳大利亚)
◎IMDb链接 https://www.imdb.com/title/tt13694628/
◎豆瓣评分 6.9/10 (4256人评价)
◎豆瓣链接 https://movie.douban.com/subject/35271841/
◎片  长 110分钟
◎导  演 贾斯汀·库泽尔 Justin Kurzel (id:1325342)
◎编  剧 肖恩·格兰特 Shaun Grant (id:1368248)
◎演  员 卡赖伯·兰德里·琼斯 Caleb Landry Jones (id:1235113)
       埃茜·戴维斯 Essie Davis (id:1281902)
       安东尼·拉帕格利亚 Anthony LaPaglia (id:1007018)
       朱迪·戴维斯 Judy Davis (id:1044972)
       肖恩·基南 Sean Keenan (id:1014240)
       杰德·库泽尔 Jed Kurzel (id:1376075)
       杰曼·麦克米金 Germain McMicking (id:1398531)

◎简  介
  不受欢迎的青年尼特朗,坏脾气的他就像个不定时炸弹,在公众场合任由行为失控,母亲为了管教身心俱疲,宠溺的父亲会在闯祸后出面收拾残局,让尼特朗变本加厉。他没学可上,成日在街头游荡,社区的孩子总是戏弄嘲笑他,直到遇见年华消逝、古怪却富有的海伦,他认为自己找到了朋友,母亲却觉得这位“新朋友”另有所图??。                                    
                                以犯罪电影见长的澳洲导演贾斯汀克佐,再度携手《血教育》编剧尚恩格兰特,这回收起形于外的暴虐,用冷静自持的角度,重新检视震惊全澳的真实社会事件。画面虽不见血腥,不言而喻的冷暴力,却让恐惧更深入骨髓。茱蒂戴维斯所饰演的母亲,表面虽强硬,但面对智力受损而不受控的孩子所产生的爱与恐惧,诠释层次分明。性格小生卡赖伯兰里琼斯令人不寒而慄的演出,也让他成功拿下坎城影帝。

◎获奖情况 (共2项)
  第74届戛纳电影节 (2021)
  主竞赛单元 金棕榈奖(提名)
   └──贾斯汀·库泽尔 (id:1325342)
  主竞赛单元 最佳男演员
   └──卡赖伯·兰德里·琼斯 (id:1235113)

  1. ##### MediaInfo ######
  2. General
  3. Unique ID                                : 292506564572774235333900934747718453077 (0xDC0EB714FDD122C48D1A965973848755)
  4. Complete name                            : Nitram.2021.1080p.BluRay.DTS.x265-10bit-ENTHD.mkv
  5. Format                                   : Matroska
  6. Format version                           : Version 4
  7. File size                                : 6.65 GiB
  8. Duration                                 : 1 h 51 min
  9. Overall bit rate                         : 8 543 kb/s
  10. Movie name                               : Nitram 2021 1080p BluRay DTS x265-10bit-HDS
  11. Encoded date                             : UTC 2022-06-18 13:17:05
  12. Writing application                      : mkvmerge v67.0.0 ('Under Stars') 64-bit
  13. Writing library                          : libebml v1.4.2 + libmatroska v1.6.4
  14. Video
  15. ID                                       : 1
  16. Format                                   : HEVC
  17. Format/Info                              : High Efficiency Video Coding
  18. Format profile                           : Main 10@L5.1@High
  19. Codec ID                                 : V_MPEGH/ISO/HEVC
  20. Duration                                 : 1 h 51 min
  21. Bit rate                                 : 6 997 kb/s
  22. Width                                    : 1 676 pixels
  23. Height                                   : 1 080 pixels
  24. Display aspect ratio                     : 16:10
  25. Frame rate mode                          : Constant
  26. Frame rate                               : 24.000 FPS
  27. Color space                              : YUV
  28. Chroma subsampling                       : 4:2:0
  29. Bit depth                                : 10 bits
  30. Bits/(Pixel*Frame)                       : 0.161
  31. Stream size                              : 5.45 GiB (82%)
  32. Title                                    : @HDSky
  33. Writing library                          : x265 - H.265/HEVC codec
  34. Default                                  : Yes
  35. Forced                                   : No
  36. Audio
  37. ID                                       : 2
  38. Format                                   : DTS
  39. Format/Info                              : Digital Theater Systems
  40. Codec ID                                 : A_DTS
  41. Duration                                 : 1 h 51 min
  42. Bit rate mode                            : Constant
  43. Bit rate                                 : 1 509 kb/s
  44. Channel(s)                               : 6 channels
  45. Channel layout                           : C L R Ls Rs LFE
  46. Sampling rate                            : 48.0 kHz
  47. Frame rate                               : 93.750 FPS (512 SPF)
  48. Bit depth                                : 24 bits
  49. Compression mode                         : Lossy
  50. Stream size                              : 1.17 GiB (18%)
  51. Title                                    : English
  52. Language                                 : English
  53. Default                                  : Yes
  54. Forced                                   : No
  55. Text #1
  56. ID                                       : 3
  57. Format                                   : PGS
  58. Muxing mode                              : zlib
  59. Codec ID                                 : S_HDMV/PGS
  60. Codec ID/Info                            : Picture based subtitle format used on BDs/HD-DVDs
  61. Duration                                 : 1 h 44 min
  62. Bit rate                                 : 22.0 kb/s
  63. Count of elements                        : 1758
  64. Stream size                              : 16.5 MiB (0%)
  65. Title                                    : CHS
  66. Language                                 : Chinese
  67. Default                                  : Yes
  68. Forced                                   : No
  69. Text #2
  70. ID                                       : 4
  71. Format                                   : PGS
  72. Muxing mode                              : zlib
  73. Codec ID                                 : S_HDMV/PGS
  74. Codec ID/Info                            : Picture based subtitle format used on BDs/HD-DVDs
  75. Duration                                 : 1 h 46 min
  76. Bit rate                                 : 25.4 kb/s
  77. Count of elements                        : 2228
  78. Stream size                              : 19.3 MiB (0%)
  79. Title                                    : CHT
  80. Language                                 : Chinese
  81. Default                                  : Yes
  82. Forced                                   : No
  83. Text #3
  84. ID                                       : 5
  85. Format                                   : PGS
  86. Muxing mode                              : zlib
  87. Codec ID                                 : S_HDMV/PGS
  88. Codec ID/Info                            : Picture based subtitle format used on BDs/HD-DVDs
  89. Duration                                 : 1 h 44 min
  90. Bit rate                                 : 22.0 kb/s
  91. Count of elements                        : 1758
  92. Stream size                              : 16.5 MiB (0%)
  93. Title                                    : ENG
  94. Language                                 : English
  95. Default                                  : Yes
  96. Forced                                   : No
  97. Menu
  98. 00:00:00.000                             : en:第 01 章
  99. 00:11:59.333                             : en:第 02 章
  100. 00:20:10.333                             : en:第 03 章
  101. 00:32:02.167                             : en:第 04 章
  102. 00:42:22.167                             : en:第 05 章
  103. 00:52:01.208                             : en:第 06 章
  104. 00:59:36.458                             : en:第 07 章
  105. 01:10:57.708                             : en:第 08 章
  106. 01:18:07.083                             : en:第 09 章
  107. 01:30:49.125                             : en:第 10 章
  108. 01:40:19.000                             : en:第 11 章
  109. 01:46:18.292                             : en:第 12 章





此处一般会放置磁力链或种子下载链接,不过此链接需要注册会员才能看到,点击“立即注册”
磁力链下载【下载链接仅对注册会员开放,登陆后可见】
BT9527电影天堂 1、BT9527电影天堂提供的BT文件均来源于互联网抓取,只供网友学习交流、技术提升使用。
2、我们遵守BitTorrent点对点协议原则,任何版权问题请联系原资源发布商,我们不处理任何版权纠纷,谢谢!如有争议请联系邮箱:BT9527#hotmail.com(#换成@)
3、如果您发现某页面或地址有错误,请联系站长邮箱BT9527#hotmail.com(#换成@),我们会尽快处理。您的热心是对BT9527电影天堂最大的支持。
4、本站建议去正规影院观看电影以支持电影行业发展。
最新回复 (0)

你可以在 登录 or 注册 后,对此帖发表评论!

返回
发新帖