倒霉性爱,发狂黄片[中文字幕].Bad.Luck.Banging.or.Loony.Porn.2021.1080p.BluRay.DTS.x265-10bit-ENTHD 7.94GB

版主小s 3月前 501

✔资源类型:暂未分类   ✔电影年份:2021   ✔电影地区:其他   ✔电影分类:剧情

◎译  名 倒霉性爱,发狂黄片 / Sleepwalkers / Bad Luck Banging or Loony Porn / 倒楣性爱和疯狂A片(台) / 春宫 野史 大批斗(港) / 行衰运色情电影
◎片  名 Babardeal? cu bucluc sau porno balamuc
◎年  代 2021
◎产  地 罗马尼亚 / 卢森堡 / 捷克 / 克罗地亚
◎类  别 剧情 / 喜剧
◎语  言 罗马尼亚语 / 英语 / 法语 / 俄语 / 捷克语
◎上映日期 2021-03-03(柏林国际电影节)
◎IMDb链接 https://www.imdb.com/title/tt14033502/
◎豆瓣评分 7.2/10 (15951人评价)
◎豆瓣链接 https://movie.douban.com/subject/35242942/
◎片  长 106分钟
◎导  演 拉杜·裘德 Radu Jude (id:1305166)
◎编  剧 拉杜·裘德 Radu Jude (id:1305166)
◎演  员 克劳迪娅·耶利米亚 Claudia Ieremia (id:1427711)
       奥林匹娅·马莱 Olimpia M?lai (id:1454227)
       尼科丁·恩古里亚努 Nicodim Ungureanu (id:1343848)
       亚历山德鲁·波托切安 Alexandru Potocean (id:1045676)
       安迪·瓦斯卢亚努 Andi Vasluianu (id:1299917)
       达娜·沃伊库 Dana Voicu (id:1454454)
       凯蒂娅·帕斯卡留 Katia Pascariu (id:1451809)
       丹妮埃拉·伊奥尼策·马尔库 Daniela Ioni?? Marcu (id:1454461)

◎简  介
  一段视频被病毒式传播,视频中,一男一女戴着面具做爱。不过,这名女子还是被认出来了。更糟的是,她是一名教师,本应当是一个榜样。而且这是在一个后社会主义社会,即将迷失在一个社会网络话语中,其中有治愈洁癖的态度,有伪政治万事通,有神圣沙文主义,有怪诞阴谋论。每个人都有自己的意见。辩论变成了一个法庭,关于双方同意的性、色情等等。拉杜·裘德(Radu Jude)一如既往地致力于创新的电影实验,在这个作品中精心制作了一个聪明的、讽刺性的三部曲:第一部分以不紧不慢的精准镜头对准布加勒斯特街头日常熙攘生活中的疯狂幽默,向我们展示纪录-虚构界面的当代电影的样子。第二部分是一系列平淡无奇的静态影像,旨在作为我们这个时代符号的百科全书。影片的大结局(虽然是开放式的)是在学校举行的讨论,对女主角的存在的理由作出裁决。

◎获奖情况 (共3项)
  第71届柏林国际电影节 (2021)
  金熊奖 最佳影片
   └──拉杜·裘德 (id:1305166)

  第34届欧洲电影奖 (2021)
  最佳导演(提名)
   └──拉杜·裘德 (id:1305166)
  最佳编剧(提名)
   └──拉杜·裘德 (id:1305166)

  1. ##### MediaInfo ######
  2. General
  3. Unique ID                                : 280492728361716011726162342547760759231 (0xD304EF39A7423FD45B70DC0C9DAE41BF)
  4. Complete name                            : Bad.Luck.Banging.or.Loony.Porn.2021.1080p.BluRay.DTS.x265-10bit-ENTHD.mkv
  5. Format                                   : Matroska
  6. Format version                           : Version 4
  7. File size                                : 7.94 GiB
  8. Duration                                 : 1 h 46 min
  9. Overall bit rate                         : 10.7 Mb/s
  10. Movie name                               : Bad Luck Banging or Loony Porn 2021 1080p BluRay DTS x265-10bit-HDS
  11. Encoded date                             : UTC 2022-06-19 22:03:46
  12. Writing application                      : mkvmerge v67.0.0 ('Under Stars') 64-bit
  13. Writing library                          : libebml v1.4.2 + libmatroska v1.6.4
  14. Video
  15. ID                                       : 1
  16. Format                                   : HEVC
  17. Format/Info                              : High Efficiency Video Coding
  18. Format profile                           : Main 10@L5.1@High
  19. Codec ID                                 : V_MPEGH/ISO/HEVC
  20. Duration                                 : 1 h 46 min
  21. Bit rate                                 : 9 160 kb/s
  22. Width                                    : 1 920 pixels
  23. Height                                   : 804 pixels
  24. Display aspect ratio                     : 2.40:1
  25. Frame rate mode                          : Constant
  26. Frame rate                               : 24.000 FPS
  27. Color space                              : YUV
  28. Chroma subsampling                       : 4:2:0
  29. Bit depth                                : 10 bits
  30. Bits/(Pixel*Frame)                       : 0.247
  31. Stream size                              : 6.79 GiB (85%)
  32. Title                                    : @HDSky
  33. Writing library                          : x265 - H.265/HEVC codec
  34. Default                                  : Yes
  35. Forced                                   : No
  36. Audio
  37. ID                                       : 2
  38. Format                                   : DTS
  39. Format/Info                              : Digital Theater Systems
  40. Codec ID                                 : A_DTS
  41. Duration                                 : 1 h 46 min
  42. Bit rate mode                            : Constant
  43. Bit rate                                 : 1 509 kb/s
  44. Channel(s)                               : 6 channels
  45. Channel layout                           : C L R Ls Rs LFE
  46. Sampling rate                            : 48.0 kHz
  47. Frame rate                               : 93.750 FPS (512 SPF)
  48. Bit depth                                : 24 bits
  49. Compression mode                         : Lossy
  50. Stream size                              : 1.12 GiB (14%)
  51. Title                                    : English
  52. Language                                 : English
  53. Default                                  : Yes
  54. Forced                                   : No
  55. Text #1
  56. ID                                       : 3
  57. Format                                   : PGS
  58. Muxing mode                              : zlib
  59. Codec ID                                 : S_HDMV/PGS
  60. Codec ID/Info                            : Picture based subtitle format used on BDs/HD-DVDs
  61. Duration                                 : 1 h 45 min
  62. Bit rate                                 : 41.2 kb/s
  63. Count of elements                        : 2141
  64. Stream size                              : 31.1 MiB (0%)
  65. Title                                    : CHS
  66. Language                                 : Chinese
  67. Default                                  : Yes
  68. Forced                                   : No
  69. Text #2
  70. ID                                       : 4
  71. Format                                   : PGS
  72. Muxing mode                              : zlib
  73. Codec ID                                 : S_HDMV/PGS
  74. Codec ID/Info                            : Picture based subtitle format used on BDs/HD-DVDs
  75. Duration                                 : 1 h 45 min
  76. Bit rate                                 : 41.9 kb/s
  77. Count of elements                        : 2141
  78. Stream size                              : 31.7 MiB (0%)
  79. Title                                    : CHT
  80. Language                                 : Chinese
  81. Default                                  : Yes
  82. Forced                                   : No
  83. Menu
  84. 00:00:00.000                             : en:第 01 章
  85. 00:10:19.292                             : en:第 02 章
  86. 00:17:53.583                             : en:第 03 章
  87. 00:27:47.083                             : en:第 04 章
  88. 00:36:05.542                             : en:第 05 章
  89. 00:44:08.583                             : en:第 06 章
  90. 00:53:45.250                             : en:第 07 章
  91. 01:02:05.167                             : en:第 08 章
  92. 01:10:06.042                             : en:第 09 章
  93. 01:20:42.292                             : en:第 10 章
  94. 01:28:34.750                             : en:第 11 章
  95. 01:39:42.375                             : en:第 12 章





此处一般会放置磁力链或种子下载链接,不过此链接需要注册会员才能看到,点击“立即注册”
磁力链下载【下载链接仅对注册会员开放,登陆后可见】
BT9527电影天堂 1、BT9527电影天堂提供的BT文件均来源于互联网抓取,只供网友学习交流、技术提升使用。
2、我们遵守BitTorrent点对点协议原则,任何版权问题请联系原资源发布商,我们不处理任何版权纠纷,谢谢!如有争议请联系邮箱:BT9527#hotmail.com(#换成@)
3、如果您发现某页面或地址有错误,请联系站长邮箱BT9527#hotmail.com(#换成@),我们会尽快处理。您的热心是对BT9527电影天堂最大的支持。
4、本站建议去正规影院观看电影以支持电影行业发展。
最新回复 (0)

你可以在 登录 or 注册 后,对此帖发表评论!

返回
发新帖