厕所英雄[国英多音轨/简体字幕].Toilet.Ek.Prem.Katha.2017.BluRay.1080p.x265.10bit.2Audios-MiniHD 8.94GB

版主小s 13天前 52

✔资源类型:暂未分类   ✔电影年份:2017   ✔电影地区:印度   ✔电影分类:剧情

◎译  名 厕所英雄 / 厕所:一个爱情故事(台) / 厕所:一个爱的故事 / ??????: ?? ????? ??? / Toilet: A Love Story
◎片  名 Toilet - Ek Prem Katha
◎年  代 2017
◎产  地 印度
◎类  别 剧情 / 喜剧
◎语  言 印地语
◎上映日期 2018-06-08(中国大陆) / 2017-08-11(印度)
◎IMDb链接 https://www.imdb.com/title/tt5785170/
◎豆瓣评分 7.1/10 (97260人评价)
◎豆瓣链接 https://movie.douban.com/subject/26942645/
◎片  长 155分钟
◎导  演 什里·那拉扬·辛 Shree Narayan Singh (id:1339168)
◎编  剧 格丽玛 Garima (id:1387228)
       西达尔特·辛格 Siddharth Singh (id:1338345)
◎演  员 阿克谢·库玛尔 Akshay Kumar (id:1049615)
       阿努潘·凯尔 Anupam Kher (id:1054303)
       布米·佩德卡尔 Bhumi Pednekar (id:1354711)
       拉杰什·沙玛 Rajesh Sharma (id:1350832)
       萨钦·克德卡 Sachin Khedekar (id:1365268)
       莎娜·可汗 Sana Khan (id:1338123)
       迪韦严杜·沙玛 Divyendu Sharma (id:1369331)
       Gunjan Malhotra Gunjan Malhotra (id:1395101)

◎简  介
  家里经营自行车行的科沙夫(阿克谢·库玛尔 Akshay Kumar 饰)是一个大龄单身青年,他的老板专横独大,出于迷信要求儿子必须娶一个一只手上有两根拇指的妻子,而为了所谓的黄道吉日还专门安排科沙夫娶了一头母牛为妻。科沙夫虽然唯唯诺诺,可是无时无刻不期待美好爱情的出现。偶然机缘,他邂逅了婆罗门出身的知识女性贾娅(布米·佩德卡尔 Bhumi Pednekar 饰)。最初的龃龉和误会过后,这对身份地位和生活背景都有着巨大差异的男女越走越近,最终喜结连理。然而好景不长,新婚次日贾娅就发现一个严重问题。出于宗教信仰,科沙夫的家里根本没有厕所,包括女性在内必须要去很远的野外解决问题。                                    
                                为了自己的合法权益,贾娅和丈夫以及其家人展开了旷日持久的战争……
  1. ##### MediaInfo ######
  2. General
  3. Unique ID                                : 23488706757439609742287820232344670544 (0x11ABC2A79A31563A101C1085598B1150)
  4. Complete name                            : Toilet.Ek.Prem.Katha.2017.BluRay.1080p.x265.10bit.2Audios-MiniHD.mkv
  5. Format                                   : Matroska
  6. Format version                           : Version 4
  7. File size                                : 8.93 GiB
  8. Duration                                 : 2 h 33 min
  9. Overall bit rate                         : 8 344 kb/s
  10. Movie name                               : Howards.End.1992.2160p.BluRay.REMUX.HEVC.DTS-HD.MA.5.1-FGT
  11. Encoded date                             : UTC 2018-07-20 13:34:12
  12. Writing application                      : mkvmerge v20.0.0 ('I Am The Sun') 64-bit
  13. Writing library                          : libebml v1.3.5 + libmatroska v1.4.8
  14. Cover                                    : Yes
  15. Attachments                              : cover.jpg / small_cover.jpg / small_cover_land.jpg / cover.jpg / cover_land.jpg
  16. Video
  17. ID                                       : 1
  18. Format                                   : HEVC
  19. Format/Info                              : High Efficiency Video Coding
  20. Format profile                           : Main 10@L4@Main
  21. Codec ID                                 : V_MPEGH/ISO/HEVC
  22. Duration                                 : 2 h 33 min
  23. Bit rate                                 : 7 198 kb/s
  24. Width                                    : 1 920 pixels
  25. Height                                   : 804 pixels
  26. Display aspect ratio                     : 2.40:1
  27. Frame rate mode                          : Constant
  28. Frame rate                               : 24.000 FPS
  29. Color space                              : YUV
  30. Chroma subsampling                       : 4:2:0
  31. Bit depth                                : 10 bits
  32. Bits/(Pixel*Frame)                       : 0.194
  33. Stream size                              : 7.71 GiB (86%)
  34. Writing library                          : x265 2.8+4-g0ad419482+18:[Windows][GCC 7.1.0][64 bit] Yuuki 10bit
  35. Encoding settings                        : rc=crf / crf=19.0000 / qcomp=0.60 / qpstep=4 / aq-mode=3 / aq-strength=0.70 / cbqpoffs=-2 / crqpoffs=-2 / ipratio=1.40 / pbratio=1.20 / psy-rd=1.60 / psy-rdoq=1.00 / deblock=-1:-1 / ref=4 / bframes=6 / b-adapt=2 / bframe-bias=0 / b-pyramid / b-intra / weightp / weightb / min-keyint=1 / max-keyint=360 / rc-lookahead=30 / gop-lookahead=0 / NTMzNTQ=uuDQuD2mJt9fsCf / scenecut=40 / radl=0 / max-cu-size=32 / min-cu-size=8 / me=3 / subme=3 / merange=38 / rdoq-level=2 / rd=4 / rdpenalty=1 / ----- / cutree / no-sao / no-rect / no-amp / no-open-gop / wpp / no-pmode / no-pme / no-psnr / no-ssim / nr-intra=0 / nr-inter=0 / no-constrained-intra / no-strong-intra-smoothing / max-tu-size=32 / tu-inter-depth=2 / tu-intra-depth=2 / limit-tu=4 / qg-size=8 / qpmax=69 / qpmin=0 / ----- / cpuid=533541111039 / frame-threads=5 / numa-pools=84,84 / log-level=2 / input-csp=1 / input-res=1920x804 / interlace=0 / level-idc=0 / high-tier=1 / uhd-bd=0 / no-allow-non-conformance / no-repeat-headers / no-aud / no-hrd / info / hash=0 / no-temporal-layers / lookahead-slices=4 / no-intra-refresh / dynamic-rd=0.00 / no-ssim-rd / signhide / no-tskip / max-merge=3 / limit-refs=2 / limit-modes / temporal-mvp / no-analyze-src-pics / no-sao-non-deblock / no-early-skip / rskip / no-fast-intra / no-tskip-fast / no-cu-lossless / no-splitrd-skip / no-rd-refine / no-lossless / zone-count=0 / no-strict-cbr / no-rc-grain / no-const-vbv / sar=0 / overscan=0 / videoformat=5 / range=0 / colorprim=2 / transfer=2 / colormatrix=2 / chromaloc=0 / display-window=0 / max-cll=0,0 / min-luma=0 / max-luma=1023 / log2-max-poc-lsb=8 / vui-timing-info / vui-hrd-info / slices=1 / no-opt-qp-pps / no-opt-ref-list-length-pps / no-multi-pass-opt-rps / scenecut-bias=0.05 / no-opt-cu-delta-qp / no-aq-motion / no-hdr / no-hdr-opt / no-dhdr10-opt / no-idr-recovery-sei / analysis-reuse-level=5 / scale-factor=0 / refine-intra=0 / refine-inter=0 / refine-mv=0 / no-limit-sao / ctu-info=0 / no-lowpass-dct / refine-mv-type=0 / copy-pic=1 / max-ausize-factor=1.0 / no-dynamic-refine / no-single-sei
  36. Language                                 : English
  37. Default                                  : Yes
  38. Forced                                   : No
  39. Audio #1
  40. ID                                       : 2
  41. Format                                   : AC-3
  42. Format/Info                              : Audio Coding 3
  43. Commercial name                          : Dolby Digital
  44. Codec ID                                 : A_AC3
  45. Duration                                 : 2 h 33 min
  46. Bit rate mode                            : Constant
  47. Bit rate                                 : 640 kb/s
  48. Channel(s)                               : 6 channels
  49. Channel layout                           : L R C LFE Ls Rs
  50. Sampling rate                            : 48.0 kHz
  51. Frame rate                               : 31.250 FPS (1536 SPF)
  52. Compression mode                         : Lossy
  53. Stream size                              : 702 MiB (8%)
  54. Title                                    : 印地语
  55. Language                                 : Hindi
  56. Service kind                             : Complete Main
  57. Default                                  : Yes
  58. Forced                                   : No
  59. Audio #2
  60. ID                                       : 3
  61. Format                                   : AC-3
  62. Format/Info                              : Audio Coding 3
  63. Commercial name                          : Dolby Digital
  64. Codec ID                                 : A_AC3
  65. Duration                                 : 2 h 33 min
  66. Bit rate mode                            : Constant
  67. Bit rate                                 : 448 kb/s
  68. Channel(s)                               : 6 channels
  69. Channel layout                           : L R C LFE Ls Rs
  70. Sampling rate                            : 48.0 kHz
  71. Frame rate                               : 31.250 FPS (1536 SPF)
  72. Compression mode                         : Lossy
  73. Stream size                              : 491 MiB (5%)
  74. Title                                    : 中影国语
  75. Language                                 : Chinese
  76. Service kind                             : Complete Main
  77. Default                                  : No
  78. Forced                                   : No
  79. Text #1
  80. ID                                       : 4
  81. Format                                   : PGS
  82. Muxing mode                              : zlib
  83. Codec ID                                 : S_HDMV/PGS
  84. Codec ID/Info                            : Picture based subtitle format used on BDs/HD-DVDs
  85. Duration                                 : 2 h 32 min
  86. Bit rate                                 : 33.5 kb/s
  87. Count of elements                        : 4108
  88. Stream size                              : 36.4 MiB (0%)
  89. Title                                    : 国配简中
  90. Language                                 : Chinese
  91. Default                                  : Yes
  92. Forced                                   : No
  93. Text #2
  94. ID                                       : 5
  95. Format                                   : PGS
  96. Muxing mode                              : zlib
  97. Codec ID                                 : S_HDMV/PGS
  98. Codec ID/Info                            : Picture based subtitle format used on BDs/HD-DVDs
  99. Duration                                 : 2 h 32 min
  100. Bit rate                                 : 27.6 kb/s
  101. Count of elements                        : 4626
  102. Stream size                              : 30.0 MiB (0%)
  103. Title                                    : 简体中文
  104. Language                                 : Chinese
  105. Default                                  : No
  106. Forced                                   : No
  107. Text #3
  108. ID                                       : 6
  109. Format                                   : PGS
  110. Muxing mode                              : zlib
  111. Codec ID                                 : S_HDMV/PGS
  112. Codec ID/Info                            : Picture based subtitle format used on BDs/HD-DVDs
  113. Duration                                 : 2 h 32 min
  114. Bit rate                                 : 47.9 kb/s
  115. Count of elements                        : 4626
  116. Stream size                              : 52.1 MiB (1%)
  117. Title                                    : 简英双语
  118. Language                                 : Chinese
  119. Default                                  : No
  120. Forced                                   : No
  121. Menu
  122. 00:00:00.000                             : en:Chapter 1
  123. 00:12:02.250                             : en:Chapter 2
  124. 00:26:17.458                             : en:Chapter 3
  125. 00:34:49.000                             : en:Chapter 4
  126. 00:45:58.083                             : en:Chapter 5
  127. 00:57:51.250                             : en:Chapter 6
  128. 01:09:34.000                             : en:Chapter 7
  129. 01:23:04.750                             : en:Chapter 8
  130. 01:32:52.875                             : en:Chapter 9
  131. 01:46:50.958                             : en:Chapter 10
  132. 01:55:54.041                             : en:Chapter 11
  133. 02:10:49.708                             : en:Chapter 12



此处一般会放置磁力链或种子下载链接,不过此链接需要注册会员才能看到,点击“立即注册”
磁力链下载【下载链接仅对注册会员开放,登陆后可见】
BT9527电影天堂 1、BT9527电影天堂提供的BT文件均来源于互联网抓取,只供网友学习交流、技术提升使用。
2、我们遵守BitTorrent点对点协议原则,任何版权问题请联系原资源发布商,我们不处理任何版权纠纷,谢谢!如有争议请联系邮箱:BT9527#hotmail.com(#换成@)
3、如果您发现某页面或地址有错误,请联系站长邮箱BT9527#hotmail.com(#换成@),我们会尽快处理。您的热心是对BT9527电影天堂最大的支持。
4、本站建议去正规影院观看电影以支持电影行业发展。
最新回复 (0)

你可以在 登录 or 注册 后,对此帖发表评论!

返回
发新帖