刺心[简繁字幕].Un.Couteau.Dans.le.Coeur.2018.BluRay.1080p.x265.10bit-MiniHD 6.71GB

版主小s 3月前 127

✔资源类型:暂未分类   ✔电影年份:2018   ✔电影地区:其他   ✔电影分类:剧情

◎译  名 刺心 / 猎根(港) / 插心之刀(台) / 心如刀割 / 戳心匕首 / 扎心了,老铁(豆友译名) / Knife + Heart
◎片  名 Un couteau dans le c?ur
◎年  代 2018
◎产  地 法国 / 墨西哥 / 瑞士
◎类  别 剧情 / 惊悚 / 同性 / 犯罪
◎语  言 法语 / 西班牙语
◎上映日期 2018-05-17(戛纳电影节) / 2018-06-27(法国)
◎IMDb链接 https://www.imdb.com/title/tt6426028/
◎豆瓣评分 6.7/10 (5098人评价)
◎豆瓣链接 https://movie.douban.com/subject/26683287/
◎片  长 102分钟
◎导  演 扬·冈扎乐兹 Yann Gonzalez (id:1365093)
◎编  剧 扬·冈扎乐兹 Yann Gonzalez (id:1365093)
       克里斯蒂亚诺·曼吉尼 Cristiano Mangione (id:1404227)
◎演  员 凡妮莎·帕拉迪丝 Vanessa Paradis (id:1036447)
       凯特·莫兰 Kate Moran (id:1404228)
       尼古拉·莫里 Nicolas Maury (id:1363069)
       乔纳森·日奈 Jonathan Genet (id:1379597)
       哈立德·俄卢阿什 Khaled Alouach (id:1403683)
       费利克斯·马利陶德 Félix Maritaud (id:1385669)
       贝特朗·芒蒂格 Bertrand Mandico (id:1383262)
       彼埃尔·皮罗尔 Pierre Pirol (id:1404229)
       罗曼娜·波琳热 Romane Bohringer (id:1022907)
       埃琳娜·勒文松 Elina L?wensohn (id:1121669)
       亚纳·柯勒特 Yann Collette (id:1001430)
       雅各·诺勒 Jacques Nolot (id:1050811)
       弗洛伦斯·焦尔杰蒂 Florence Giorgetti (id:1098973)
       娜塔莉·理查德 Nathalie Richard (id:1313111)
       皮埃尔·埃默 Pierre Em? (id:1392441)
       朱尔斯·利特马尼克 Jules Ritmanic (id:1360189)
       Christophe Bier Christophe Bier (id:1062456)
       巴斯蒂安·沃蒂埃 Bastien Waultier (id:1410126)
       M83 M83 (id:1451695)
       Simon Beaufils Simon Beaufils (id:1451696)
       Rapha?l Lefèvre  (id:1451697)
       Pauline Jacquard          Pauline Jacquard (id:1451698)
       大卫·佩罗 David Perrault (id:1011605)

◎简  介
  1979年夏天,巴黎。Anne是个风光不再的同性恋色情片制片人。她的剪辑师兼爱人Lo?s离她而去。她决定与密友Archibald共同拍摄一部更有野心的新片,以重新赢回前女友的心。但她的其中一名演员却被野蛮谋杀,Anne的生活也被这场奇怪的调查所扰乱。

◎获奖情况 (共2项)
  第71届戛纳电影节 (2018)
  主竞赛单元 金棕榈奖(提名)
   └──扬·冈扎乐兹 (id:1365093)
  酷儿棕榈奖(提名)
   └──扬·冈扎乐兹 (id:1365093)

  1. ##### MediaInfo ######
  2. General
  3. Unique ID                                : 637666291515844685890131258739268274 (0x7ACF6020947E71A3E6AB4DE1B41AB2)
  4. Complete name                            : Un.Couteau.Dans.le.Coeur.2018.BluRay.1080p.x265.10bit-MiniHD.mkv
  5. Format                                   : Matroska
  6. Format version                           : Version 4
  7. File size                                : 6.71 GiB
  8. Duration                                 : 1 h 42 min
  9. Overall bit rate                         : 9 387 kb/s
  10. Encoded date                             : UTC 2018-12-26 01:46:59
  11. Writing application                      : mkvmerge v24.0.0 ('Beyond The Pale') 64-bit
  12. Writing library                          : libebml v1.3.6 + libmatroska v1.4.9
  13. Video
  14. ID                                       : 1
  15. Format                                   : HEVC
  16. Format/Info                              : High Efficiency Video Coding
  17. Format profile                           : Main 10@L4@Main
  18. Codec ID                                 : V_MPEGH/ISO/HEVC
  19. Duration                                 : 1 h 42 min
  20. Bit rate                                 : 8 728 kb/s
  21. Width                                    : 1 920 pixels
  22. Height                                   : 804 pixels
  23. Display aspect ratio                     : 2.40:1
  24. Frame rate mode                          : Constant
  25. Frame rate                               : 23.976 (24000/1001/53354) FPS
  26. Color space                              : YUV
  27. Chroma subsampling                       : 4:2:0
  28. Bit depth                                : 10 bits
  29. Bits/(Pixel*Frame)                       : 0.236
  30. Stream size                              : 6.24 GiB (93%)
  31. Writing library                          : x265 2.9+4-471726d3a046:[Windows][GCC 8.2.0][64 bit] 10bit
  32. Encoding settings                        : cpuid=533541111039 / frame-threads=4 / numa-pools=16 / wpp / no-pmode / no-pme / no-psnr / no-ssim / log-level=2 / input-csp=1 / input-res=1920x804 / interlace=0 / total-frames=147156 / level-idc=0 / high-tier=1 / uhd-bd=0 / ref=5 / no-allow-non-conformance / no-repeat-headers / annexb / no-aud / no-hrd / info / hash=0 / no-temporal-layers / no-open-gop / min-keyint=1 / keyint=360 / gop-lookahead=0 / bframes=8 / b-adapt=2 / b-pyramid / bframe-bias=0 / rc-lookahead=60 / lookahead-slices=4 / NTMzNTQ=uuDQuD2mJt9fsCf / scenecut=40 / radl=0 / no-intra-refresh / ctu=32 / min-cu-size=8 / rect / no-amp / max-tu-size=16 / tu-inter-depth=2 / tu-intra-depth=2 / limit-tu=4 / rdoq-level=1 / dynamic-rd=0.00 / no-ssim-rd / signhide / no-tskip / nr-intra=0 / nr-inter=0 / no-constrained-intra / no-strong-intra-smoothing / max-merge=3 / limit-refs=2 / limit-modes / me=3 / subme=5 / merange=25 / temporal-mvp / weightp / weightb / no-analyze-src-pics / deblock=-1:-1 / no-sao / no-sao-non-deblock / rd=4 / no-early-skip / rskip / no-fast-intra / no-tskip-fast / no-cu-lossless / b-intra / no-splitrd-skip / rdpenalty=1 / psy-rd=2.00 / psy-rdoq=5.00 / no-rd-refine / no-lossless / cbqpoffs=-2 / crqpoffs=-2 / rc=crf / crf=21.0 / qcomp=0.65 / qpstep=4 / stats-write=0 / stats-read=0 / ipratio=1.40 / pbratio=1.30 / aq-mode=1 / aq-strength=0.90 / cutree / zone-count=0 / no-strict-cbr / qg-size=16 / no-rc-grain / qpmax=69 / qpmin=0 / no-const-vbv / sar=1 / overscan=0 / videoformat=5 / range=0 / colorprim=1 / transfer=2 / colormatrix=2 / chromaloc=0 / display-window=0 / max-cll=0,0 / min-luma=0 / max-luma=1023 / log2-max-poc-lsb=8 / vui-timing-info / vui-hrd-info / slices=1 / no-opt-qp-pps / no-opt-ref-list-length-pps / no-multi-pass-opt-rps / scenecut-bias=0.05 / no-opt-cu-delta-qp / no-aq-motion / no-hdr / no-hdr-opt / no-dhdr10-opt / no-idr-recovery-sei / analysis-reuse-level=5 / scale-factor=0 / refine-intra=0 / refine-inter=0 / refine-mv=0 / no-limit-sao / ctu-info=0 / no-lowpass-dct / refine-mv-type=0 / copy-pic=1 / max-ausize-factor=1.0 / no-dynamic-refine / no-single-sei
  33. Default                                  : Yes
  34. Forced                                   : No
  35. Color range                              : Limited
  36. Color primaries                          : BT.709
  37. Audio
  38. ID                                       : 2
  39. Format                                   : AC-3
  40. Format/Info                              : Audio Coding 3
  41. Commercial name                          : Dolby Digital
  42. Codec ID                                 : A_AC3
  43. Duration                                 : 1 h 42 min
  44. Bit rate mode                            : Constant
  45. Bit rate                                 : 640 kb/s
  46. Channel(s)                               : 6 channels
  47. Channel layout                           : L R C LFE Ls Rs
  48. Sampling rate                            : 48.0 kHz
  49. Frame rate                               : 31.250 FPS (1536 SPF)
  50. Compression mode                         : Lossy
  51. Stream size                              : 468 MiB (7%)
  52. Language                                 : French
  53. Service kind                             : Complete Main
  54. Default                                  : Yes
  55. Forced                                   : No
  56. Text #1
  57. ID                                       : 3
  58. Format                                   : PGS
  59. Muxing mode                              : zlib
  60. Codec ID                                 : S_HDMV/PGS
  61. Codec ID/Info                            : Picture based subtitle format used on BDs/HD-DVDs
  62. Duration                                 : 1 h 24 min
  63. Bit rate                                 : 19.7 kb/s
  64. Count of elements                        : 1601
  65. Stream size                              : 12.0 MiB (0%)
  66. Title                                    : 简中
  67. Language                                 : Chinese
  68. Default                                  : Yes
  69. Forced                                   : No
  70. Text #2
  71. ID                                       : 4
  72. Format                                   : PGS
  73. Muxing mode                              : zlib
  74. Codec ID                                 : S_HDMV/PGS
  75. Codec ID/Info                            : Picture based subtitle format used on BDs/HD-DVDs
  76. Duration                                 : 1 h 24 min
  77. Bit rate                                 : 20.6 kb/s
  78. Count of elements                        : 1601
  79. Stream size                              : 12.5 MiB (0%)
  80. Title                                    : 繁中
  81. Language                                 : Chinese
  82. Default                                  : No
  83. Forced                                   : No
  84. Menu
  85. 00:00:00.000                             : en:00:00:00.000 / en:第 01 章
  86. 00:06:57.876                             : en:00:06:57.876
  87. 00:14:59.315                             : en:00:14:59.315
  88. 00:23:36.457                             : en:00:23:36.457
  89. 00:31:55.080                             : en:00:31:55.080
  90. 00:41:46.546                             : en:00:41:46.546
  91. 00:50:46.669                             : en:00:50:46.669
  92. 00:59:24.603                             : en:00:59:24.603
  93. 01:07:30.380                             : en:01:07:30.380
  94. 01:14:31.175                             : en:01:14:31.175
  95. 01:23:44.019                             : en:01:23:44.019
  96. 01:32:55.445                             : en:01:32:55.445





此处一般会放置磁力链或种子下载链接,不过此链接需要注册会员才能看到,点击“立即注册”
磁力链下载【下载链接仅对注册会员开放,登陆后可见】
BT9527电影天堂 1、BT9527电影天堂提供的BT文件均来源于互联网抓取,只供网友学习交流、技术提升使用。
2、我们遵守BitTorrent点对点协议原则,任何版权问题请联系原资源发布商,我们不处理任何版权纠纷,谢谢!如有争议请联系邮箱:BT9527#hotmail.com(#换成@)
3、如果您发现某页面或地址有错误,请联系站长邮箱BT9527#hotmail.com(#换成@),我们会尽快处理。您的热心是对BT9527电影天堂最大的支持。
4、本站建议去正规影院观看电影以支持电影行业发展。
最新回复 (0)

你可以在 登录 or 注册 后,对此帖发表评论!

返回
发新帖