冒牌上尉[简繁字幕].Der.Hauptmann.2017.BluRay.1080p.x265.10bit-MiniHD 6.38GB

版主小s 4天前 20

✔资源类型:暂未分类   ✔电影年份:2017   ✔电影地区:其他   ✔电影分类:剧情

◎译  名 冒牌上尉 / 以希魔的名义(港) / The Captain
◎片  名 Der Hauptmann
◎年  代 2017
◎产  地 德国 / 波兰 / 葡萄牙 / 法国
◎类  别 剧情 / 历史 / 战争
◎语  言 德语
◎上映日期 2017-09-07(多伦多电影节) / 2018-03-15(德国)
◎IMDb链接 https://www.imdb.com/title/tt6763252/
◎豆瓣评分 8.6/10 (69469人评价)
◎豆瓣链接 https://movie.douban.com/subject/27114240/
◎片  长 118分钟
◎导  演 罗伯特·斯文克 Robert Schwentke (id:1297058)
◎编  剧 罗伯特·斯文克 Robert Schwentke (id:1297058)
◎演  员 麦克斯·胡巴赫 Max Hubacher (id:1332831)
       米兰·佩舍尔 Milan Peschel (id:1330882)
       弗雷德里克·劳 Frederick Lau (id:1223320)
       贝恩德·霍尔谢尔 Bernd H?lscher (id:1400830)
       瓦尔德马·科布斯 Waldemar Kobus (id:1342767)
       亚历山大·费林 Alexander Fehling (id:1310761)
       萨缪尔·芬齐 Samuel Finzi (id:1333485)
       欧根妮·安泽林 Eugénie Anselin (id:1433238)
       香侬·斯塔勒 Shannon Staller (id:1433237)
       马丁·托德沙罗 Martin Todsharow (id:1051406)
       弗洛里安·巴尔豪斯 Florian Ballhaus (id:1420282)
       Michal Czarnecki  Michal Czarnecki (id:1452975)

◎简  介
  德国二战题材影片。影片根据真实故事改编,讲述了一名十九岁的普通国防兵威利赫罗德在二战最后两周内成为所谓的“埃姆斯兰德刽子手”的故事。他凭借捡到的上尉制服而假冒军官,将溃散的其他士兵聚集起来组成特别任务小组,一路抢掠地在行将陷落的纳粹帝国大地上为所欲为,并以元首为榜样掌握起逮捕和生杀大权。                                    
                                该片获得了去年圣塞巴斯蒂安国际电影节的最佳摄影奖。

◎获奖情况 (共3项)
  第31届欧洲电影奖 (2018)
  最佳音效设计

  第65届圣塞巴斯蒂安国际电影节 (2017)
  最佳摄影
   └──弗洛里安·巴尔豪斯 (id:1420282)

  第5届豆瓣电影年度榜单 (2018)
  年度冷门佳片(提名)

  1. ##### MediaInfo ######
  2. General
  3. Unique ID                                : 315281833912673430446648863821676695785 (0xED31128E66C7246D2D76CD21D09C50E9)
  4. Complete name                            : Der.Hauptmann.2017.BluRay.1080p.x265.10bit-MiniHD.mkv
  5. Format                                   : Matroska
  6. Format version                           : Version 4
  7. File size                                : 6.38 GiB
  8. Duration                                 : 1 h 59 min
  9. Overall bit rate                         : 7 648 kb/s
  10. Encoded date                             : UTC 2018-10-14 06:24:12
  11. Writing application                      : mkvmerge v25.0.0 ('Prog Noir') 64-bit
  12. Writing library                          : libebml v1.3.6 + libmatroska v1.4.9
  13. Video
  14. ID                                       : 1
  15. Format                                   : HEVC
  16. Format/Info                              : High Efficiency Video Coding
  17. Format profile                           : Main 10@L4@Main
  18. Codec ID                                 : V_MPEGH/ISO/HEVC
  19. Duration                                 : 1 h 59 min
  20. Bit rate                                 : 6 989 kb/s
  21. Width                                    : 1 920 pixels
  22. Height                                   : 804 pixels
  23. Display aspect ratio                     : 2.40:1
  24. Frame rate mode                          : Constant
  25. Frame rate                               : 23.976 (24000/1001/53354) FPS
  26. Color space                              : YUV
  27. Chroma subsampling                       : 4:2:0
  28. Bit depth                                : 10 bits
  29. Bits/(Pixel*Frame)                       : 0.189
  30. Stream size                              : 5.83 GiB (91%)
  31. Writing library                          : x265 2.8+1-478bfe2b7673:[Windows][GCC 7.3.0][64 bit] 10bit
  32. Encoding settings                        : cpuid=533541111039 / frame-threads=4 / numa-pools=16 / wpp / no-pmode / no-pme / no-psnr / no-ssim / log-level=2 / input-csp=1 / input-res=1920x804 / interlace=0 / total-frames=171766 / level-idc=0 / high-tier=1 / uhd-bd=0 / ref=5 / no-allow-non-conformance / no-repeat-headers / annexb / no-aud / no-hrd / info / hash=0 / no-temporal-layers / no-open-gop / min-keyint=1 / keyint=360 / gop-lookahead=0 / bframes=8 / b-adapt=2 / b-pyramid / bframe-bias=0 / rc-lookahead=60 / lookahead-slices=4 / NTMzNTQ=uuDQuD2mJt9fsCf / scenecut=40 / radl=0 / no-intra-refresh / ctu=32 / min-cu-size=8 / rect / no-amp / max-tu-size=16 / tu-inter-depth=2 / tu-intra-depth=2 / limit-tu=4 / rdoq-level=1 / dynamic-rd=0.00 / no-ssim-rd / signhide / no-tskip / nr-intra=0 / nr-inter=0 / no-constrained-intra / no-strong-intra-smoothing / max-merge=3 / limit-refs=2 / limit-modes / me=3 / subme=5 / merange=25 / temporal-mvp / weightp / weightb / no-analyze-src-pics / deblock=-1:-1 / no-sao / no-sao-non-deblock / rd=4 / no-early-skip / rskip / no-fast-intra / no-tskip-fast / no-cu-lossless / b-intra / no-splitrd-skip / rdpenalty=1 / psy-rd=2.00 / psy-rdoq=5.00 / no-rd-refine / no-lossless / cbqpoffs=-2 / crqpoffs=-2 / rc=crf / crf=18.0 / qcomp=0.70 / qpstep=4 / stats-write=0 / stats-read=0 / ipratio=1.40 / pbratio=1.30 / aq-mode=3 / aq-strength=0.90 / cutree / zone-count=0 / no-strict-cbr / qg-size=16 / no-rc-grain / qpmax=69 / qpmin=0 / no-const-vbv / sar=1 / overscan=0 / videoformat=5 / range=0 / colorprim=1 / transfer=2 / colormatrix=2 / chromaloc=0 / display-window=0 / max-cll=0,0 / min-luma=0 / max-luma=1023 / log2-max-poc-lsb=8 / vui-timing-info / vui-hrd-info / slices=1 / no-opt-qp-pps / no-opt-ref-list-length-pps / no-multi-pass-opt-rps / scenecut-bias=0.05 / no-opt-cu-delta-qp / no-aq-motion / no-hdr / no-hdr-opt / no-dhdr10-opt / no-idr-recovery-sei / analysis-reuse-level=5 / scale-factor=0 / refine-intra=0 / refine-inter=0 / refine-mv=0 / no-limit-sao / ctu-info=0 / no-lowpass-dct / refine-mv-type=0 / copy-pic=1 / max-ausize-factor=1.0 / no-dynamic-refine / no-single-sei
  33. Default                                  : Yes
  34. Forced                                   : No
  35. Color range                              : Limited
  36. Color primaries                          : BT.709
  37. Audio
  38. ID                                       : 2
  39. Format                                   : AC-3
  40. Format/Info                              : Audio Coding 3
  41. Commercial name                          : Dolby Digital
  42. Codec ID                                 : A_AC3
  43. Duration                                 : 1 h 59 min
  44. Bit rate mode                            : Constant
  45. Bit rate                                 : 640 kb/s
  46. Channel(s)                               : 6 channels
  47. Channel layout                           : L R C LFE Ls Rs
  48. Sampling rate                            : 48.0 kHz
  49. Frame rate                               : 31.250 FPS (1536 SPF)
  50. Compression mode                         : Lossy
  51. Stream size                              : 547 MiB (8%)
  52. Language                                 : German
  53. Service kind                             : Complete Main
  54. Default                                  : Yes
  55. Forced                                   : No
  56. Text #1
  57. ID                                       : 3
  58. Format                                   : PGS
  59. Muxing mode                              : zlib
  60. Codec ID                                 : S_HDMV/PGS
  61. Codec ID/Info                            : Picture based subtitle format used on BDs/HD-DVDs
  62. Duration                                 : 1 h 54 min
  63. Bit rate                                 : 17.9 kb/s
  64. Count of elements                        : 1596
  65. Stream size                              : 14.7 MiB (0%)
  66. Title                                    : 简德双语
  67. Language                                 : Chinese
  68. Default                                  : Yes
  69. Forced                                   : No
  70. Text #2
  71. ID                                       : 4
  72. Format                                   : PGS
  73. Muxing mode                              : zlib
  74. Codec ID                                 : S_HDMV/PGS
  75. Codec ID/Info                            : Picture based subtitle format used on BDs/HD-DVDs
  76. Duration                                 : 1 h 54 min
  77. Bit rate                                 : 10.9 kb/s
  78. Count of elements                        : 1596
  79. Stream size                              : 8.92 MiB (0%)
  80. Title                                    : 简中
  81. Language                                 : Chinese
  82. Default                                  : No
  83. Forced                                   : No
  84. Text #3
  85. ID                                       : 5
  86. Format                                   : PGS
  87. Muxing mode                              : zlib
  88. Codec ID                                 : S_HDMV/PGS
  89. Codec ID/Info                            : Picture based subtitle format used on BDs/HD-DVDs
  90. Duration                                 : 1 h 54 min
  91. Bit rate                                 : 11.5 kb/s
  92. Count of elements                        : 1596
  93. Stream size                              : 9.39 MiB (0%)
  94. Title                                    : 繁中
  95. Language                                 : Chinese
  96. Default                                  : No
  97. Forced                                   : No
  98. Menu
  99. 00:00:00.000                             : en:00:00:00.000 / en:第 01 章
  100. 00:08:22.168                             : en:00:08:22.168
  101. 00:16:57.516                             : en:00:16:57.516
  102. 00:24:09.907                             : en:00:24:09.907
  103. 00:36:53.711                             : en:00:36:53.711
  104. 00:47:40.441                             : en:00:47:40.441
  105. 00:58:52.821                             : en:00:58:52.821
  106. 01:09:22.533                             : en:01:09:22.533
  107. 01:20:07.011                             : en:01:20:07.011
  108. 01:32:54.319                             : en:01:32:54.319
  109. 01:44:01.026                             : en:01:44:01.026
  110. 01:50:09.394                             : en:01:50:09.394





此处一般会放置磁力链或种子下载链接,不过此链接需要注册会员才能看到,点击“立即注册”
磁力链下载【下载链接仅对注册会员开放,登陆后可见】
BT9527电影天堂 1、BT9527电影天堂提供的BT文件均来源于互联网抓取,只供网友学习交流、技术提升使用。
2、我们遵守BitTorrent点对点协议原则,任何版权问题请联系原资源发布商,我们不处理任何版权纠纷,谢谢!如有争议请联系邮箱:BT9527#hotmail.com(#换成@)
3、如果您发现某页面或地址有错误,请联系站长邮箱BT9527#hotmail.com(#换成@),我们会尽快处理。您的热心是对BT9527电影天堂最大的支持。
4、本站建议去正规影院观看电影以支持电影行业发展。
最新回复 (0)

你可以在 登录 or 注册 后,对此帖发表评论!

返回
发新帖