法内情大结局[国粤多音轨/简繁字幕].The.Truth.Final.Episode.1989.1080p.BluRay.DD2.0.2Audio.x265-10bit-ENTHD 7.29GB

版主小s 13天前 47

✔资源类型:暂未分类   ✔电影年份:更 早   ✔电影地区:香港   ✔电影分类:剧情

◎译  名 法内情大结局 / The Truth: Final Episode
◎片  名 法內情大結局
◎年  代 1989
◎产  地 中国香港
◎类  别 剧情
◎语  言 粤语
◎上映日期 1989-11-30
◎IMDb链接 https://www.imdb.com/title/tt0097320/
◎豆瓣评分 7.1/10 (1421人评价)
◎豆瓣链接 https://movie.douban.com/subject/1475119/
◎片  长 108分钟
◎导  演 麦当杰 Michael Mak (id:1324928)
◎编  剧 麦当雄 Johnny Mak (id:1290775)
◎演  员 刘德华 Andy Lau (id:1054424)
       叶德娴 Deanie Ip (id:1016864)
       何添 Tim Ho (id:1408607)
       罗树琪 Shu-Kei Law (id:1394347)
       仙杜拉 Sandra Lang (id:1424221)
       陈敬 Jing Chen (id:1317766)
       刘兆铭 Lau Siu Ming (id:1313719)
       杨泽霖 Chak Lam Yeung (id:1332157)
       罗烈 Lieh Lo (id:1012614)
       秦沛 Paul Chun (id:1048476)
       汪粤 Yue Wang (id:1274589)
       乐易玲 Virginia Lok (id:1403148)
       陈永良 Wing-leung Chan (id:1363084)
       萧若元 Stephen Siu (id:1297721)

◎简  介
  为了替母亲刘慧兰(叶德娴 饰)洗脱不白之冤,律师刘志鹏(刘德华 饰)不惜假公济私,最终因为妨碍司法公正而丢了工作,两情相悦的恋人亦选择了离开。更糟糕的是,刘志鹏遭到对手陷害,沦为谋杀探员的罪魁祸首而遭到了拘捕。让刘志鹏没有想到的是,指证他的目击证人不是别人,正是他失散多年的亲生父亲陈兴。                                    
                                为了拯救儿子,刘慧兰苦苦哀求丈夫,还刘志鹏清白。在公堂之上,陈兴良心发现,更改了口供,与此同时,真凶亦落入法网,有十足的证据证明,刘志鹏与这一连串的犯罪事实没有任何关系。走出法院,刘志鹏得知刘慧兰因病住进了医院,命不久矣,最终,她在安宁与幸福中走完了人生的道路。
  1. ##### MediaInfo ######
  2. General
  3. Unique ID                                : 265240171974556396270103035772037588575 (0xC78B6622A31FF6C1277C7649266D665F)
  4. Complete name                            : The.Truth.Final.Episode.1989.1080p.BluRay.DD2.0.2Audio.x265-10bit-ENTHD.mkv
  5. Format                                   : Matroska
  6. Format version                           : Version 4
  7. File size                                : 7.29 GiB
  8. Duration                                 : 1 h 47 min
  9. Overall bit rate                         : 9 679 kb/s
  10. Movie name                               : The Truth Final Episode 1989 1080p BluRay DD2.0 2Audio x265-10bit-HDS
  11. Encoded date                             : UTC 2022-06-20 06:47:07
  12. Writing application                      : mkvmerge v38.0.0 ('The Silent Type') 64-bit
  13. Writing library                          : libebml v1.3.9 + libmatroska v1.5.2
  14. Video
  15. ID                                       : 1
  16. Format                                   : HEVC
  17. Format/Info                              : High Efficiency Video Coding
  18. Format profile                           : Main 10@L5.1@High
  19. Codec ID                                 : V_MPEGH/ISO/HEVC
  20. Duration                                 : 1 h 47 min
  21. Bit rate                                 : 8 882 kb/s
  22. Width                                    : 1 920 pixels
  23. Height                                   : 1 080 pixels
  24. Display aspect ratio                     : 16:9
  25. Frame rate mode                          : Constant
  26. Frame rate                               : 24.000 FPS
  27. Color space                              : YUV
  28. Chroma subsampling                       : 4:2:0
  29. Bit depth                                : 10 bits
  30. Bits/(Pixel*Frame)                       : 0.178
  31. Stream size                              : 6.69 GiB (92%)
  32. Title                                    : billpotter@HDSky
  33. Writing library                          : x265 - H.265/HEVC codec
  34. Default                                  : Yes
  35. Forced                                   : No
  36. Audio #1
  37. ID                                       : 2
  38. Format                                   : AC-3
  39. Format/Info                              : Audio Coding 3
  40. Commercial name                          : Dolby Digital
  41. Codec ID                                 : A_AC3
  42. Duration                                 : 1 h 47 min
  43. Bit rate mode                            : Constant
  44. Bit rate                                 : 384 kb/s
  45. Channel(s)                               : 2 channels
  46. Channel layout                           : L R
  47. Sampling rate                            : 48.0 kHz
  48. Frame rate                               : 31.250 FPS (1536 SPF)
  49. Compression mode                         : Lossy
  50. Stream size                              : 296 MiB (4%)
  51. Title                                    : Mandarin
  52. Language                                 : Chinese
  53. Service kind                             : Complete Main
  54. Default                                  : Yes
  55. Forced                                   : No
  56. Audio #2
  57. ID                                       : 3
  58. Format                                   : AC-3
  59. Format/Info                              : Audio Coding 3
  60. Commercial name                          : Dolby Digital
  61. Codec ID                                 : A_AC3
  62. Duration                                 : 1 h 47 min
  63. Bit rate mode                            : Constant
  64. Bit rate                                 : 384 kb/s
  65. Channel(s)                               : 2 channels
  66. Channel layout                           : L R
  67. Sampling rate                            : 48.0 kHz
  68. Frame rate                               : 31.250 FPS (1536 SPF)
  69. Compression mode                         : Lossy
  70. Stream size                              : 296 MiB (4%)
  71. Title                                    : Cantonese
  72. Language                                 : Chinese
  73. Service kind                             : Complete Main
  74. Default                                  : No
  75. Forced                                   : No
  76. Text #1
  77. ID                                       : 4
  78. Format                                   : PGS
  79. Muxing mode                              : zlib
  80. Codec ID                                 : S_HDMV/PGS
  81. Codec ID/Info                            : Picture based subtitle format used on BDs/HD-DVDs
  82. Duration                                 : 1 h 43 min
  83. Bit rate                                 : 35.5 kb/s
  84. Count of elements                        : 2566
  85. Stream size                              : 26.2 MiB (0%)
  86. Title                                    : CHS
  87. Language                                 : Chinese
  88. Default                                  : Yes
  89. Forced                                   : No
  90. Text #2
  91. ID                                       : 5
  92. Format                                   : PGS
  93. Muxing mode                              : zlib
  94. Codec ID                                 : S_HDMV/PGS
  95. Codec ID/Info                            : Picture based subtitle format used on BDs/HD-DVDs
  96. Duration                                 : 1 h 43 min
  97. Bit rate                                 : 36.4 kb/s
  98. Count of elements                        : 2566
  99. Stream size                              : 26.8 MiB (0%)
  100. Title                                    : CHT
  101. Language                                 : Chinese
  102. Default                                  : No
  103. Forced                                   : No
  104. Menu
  105. 00:00:00.000                             : en:Chapter 01
  106. 00:07:47.875                             : en:Chapter 02
  107. 00:16:13.958                             : en:Chapter 03
  108. 00:28:07.792                             : en:Chapter 04
  109. 00:35:19.167                             : en:Chapter 05
  110. 00:43:07.083                             : en:Chapter 06
  111. 00:54:28.667                             : en:Chapter 07
  112. 01:05:00.333                             : en:Chapter 08
  113. 01:11:50.500                             : en:Chapter 09
  114. 01:20:32.667                             : en:Chapter 10
  115. 01:30:12.000                             : en:Chapter 11
  116. 01:41:27.000                             : en:Chapter 12





此处一般会放置磁力链或种子下载链接,不过此链接需要注册会员才能看到,点击“立即注册”
磁力链下载【下载链接仅对注册会员开放,登陆后可见】
BT9527电影天堂 1、BT9527电影天堂提供的BT文件均来源于互联网抓取,只供网友学习交流、技术提升使用。
2、我们遵守BitTorrent点对点协议原则,任何版权问题请联系原资源发布商,我们不处理任何版权纠纷,谢谢!如有争议请联系邮箱:BT9527#hotmail.com(#换成@)
3、如果您发现某页面或地址有错误,请联系站长邮箱BT9527#hotmail.com(#换成@),我们会尽快处理。您的热心是对BT9527电影天堂最大的支持。
4、本站建议去正规影院观看电影以支持电影行业发展。
最新回复 (0)

你可以在 登录 or 注册 后,对此帖发表评论!

返回
发新帖