一招半式闯江湖[国粤多音轨].Half.a.Loaf.of.Kung.Fu.1978.1080p.BluRay.DD2.0.2Audio.x265-10bit-ENTHD 6.06GB

版主小s 13天前 46

✔资源类型:暂未分类   ✔电影年份:更 早   ✔电影地区:香港   ✔电影分类:喜剧

◎译  名 一招半式闯江湖 / 天中拳 / Half a Loaf of Kung Fu
◎片  名 點止功夫咁簡單
◎年  代 1980
◎产  地 中国香港
◎类  别 喜剧 / 动作
◎语  言 粤语
◎上映日期 1980-07-01(中国香港)
◎IMDb链接 https://www.imdb.com/title/tt0080623/
◎豆瓣评分 6.4/10 (2670人评价)
◎豆瓣链接 https://movie.douban.com/subject/1292967/
◎片  长 94分钟
◎导  演 陈志华 Chi-Hwa Chen (id:1274826)
◎演  员 成龙 Jackie Chan (id:1054531)
       石天 Dean Shek (id:1146001)
       午马 Wu Ma (id:1054282)
       何刚 Kang Ho (id:1360441)
       謝地 Che Dei (id:1424240)
       马如龙 Ju-Lung Ma (id:1274685)
       李敏郎 Min-Lang Li (id:1317051)
       田俊 James Tien Chun (id:1352930)
       龙君儿 Doris Lung Chun-Erh (id:1319692)
       沈步海 Bu-Hai Shen (id:1377099)
       沈步海 Bu-Hai Shen (id:1377099)

◎简  介
  江湖小子江涛(成龙 饰)不学无术,却又时常做着英雄梦。江涛在庄园内充任杂役,却意外发现总管的女客人修炼五毒邪功,于是夺路而逃。原来女客是五毒教掌门苗春花,与总管筹划半路抢夺神威镖局护送的万年活玉和九转返魂丹两件宝物。江涛逃亡中巧遇神鞭大侠与采花贼同归于尽,于是冒神鞭大侠之名领到悬赏,引来了神秘乞丐的注意。五毒教追杀江涛,幸有老乞丐出手相救,江涛感佩,拜老乞丐为师,后者交予江涛信物,指使他去寻找押送宝物的神威镖局总镖师方威,江涛与镖局一众相认后对方威之女一见钟情,决计随镖局卫护宝物,沿路众多强敌纷现,保镖之路困难重重……
  1. ##### MediaInfo ######
  2. General
  3. Unique ID                                : 41050796640790701241609313647464128111 (0x1EE2188991CF05E59C2290F1C1299E6F)
  4. Complete name                            : Half.a.Loaf.of.Kung.Fu.1978.1080p.BluRay.DD2.0.2Audio.x265-10bit-ENTHD.mkv
  5. Format                                   : Matroska
  6. Format version                           : Version 4
  7. File size                                : 6.06 GiB
  8. Duration                                 : 1 h 36 min
  9. Overall bit rate                         : 8 988 kb/s
  10. Movie name                               : Half a Loaf of Kung Fu 1978 1080p BluRay DD2.0 2Audio x265-10bit-HDS
  11. Encoded date                             : UTC 2022-06-17 08:42:55
  12. Writing application                      : mkvmerge v67.0.0 ('Under Stars') 64-bit
  13. Writing library                          : libebml v1.4.2 + libmatroska v1.6.4
  14. Video
  15. ID                                       : 1
  16. Format                                   : HEVC
  17. Format/Info                              : High Efficiency Video Coding
  18. Format profile                           : Main 10@L5.1@High
  19. Codec ID                                 : V_MPEGH/ISO/HEVC
  20. Duration                                 : 1 h 36 min
  21. Bit rate                                 : 8 090 kb/s
  22. Width                                    : 1 920 pixels
  23. Height                                   : 816 pixels
  24. Display aspect ratio                     : 2.35:1
  25. Frame rate mode                          : Constant
  26. Frame rate                               : 23.976 (24000/1001/53354) FPS
  27. Color space                              : YUV
  28. Chroma subsampling                       : 4:2:0
  29. Bit depth                                : 10 bits
  30. Bits/(Pixel*Frame)                       : 0.215
  31. Stream size                              : 5.45 GiB (90%)
  32. Title                                    : Howfuckedareyounow@HDSky
  33. Writing library                          : x265 - H.265/HEVC codec
  34. Default                                  : Yes
  35. Forced                                   : No
  36. Audio #1
  37. ID                                       : 2
  38. Format                                   : AC-3
  39. Format/Info                              : Audio Coding 3
  40. Commercial name                          : Dolby Digital
  41. Codec ID                                 : A_AC3
  42. Duration                                 : 1 h 36 min
  43. Bit rate mode                            : Constant
  44. Bit rate                                 : 448 kb/s
  45. Channel(s)                               : 2 channels
  46. Channel layout                           : L R
  47. Sampling rate                            : 48.0 kHz
  48. Frame rate                               : 31.250 FPS (1536 SPF)
  49. Compression mode                         : Lossy
  50. Stream size                              : 309 MiB (5%)
  51. Title                                    : Mandarin
  52. Language                                 : Chinese
  53. Service kind                             : Complete Main
  54. Default                                  : Yes
  55. Forced                                   : No
  56. Audio #2
  57. ID                                       : 3
  58. Format                                   : AC-3
  59. Format/Info                              : Audio Coding 3
  60. Commercial name                          : Dolby Digital
  61. Codec ID                                 : A_AC3
  62. Duration                                 : 1 h 36 min
  63. Bit rate mode                            : Constant
  64. Bit rate                                 : 448 kb/s
  65. Channel(s)                               : 2 channels
  66. Channel layout                           : L R
  67. Sampling rate                            : 48.0 kHz
  68. Frame rate                               : 31.250 FPS (1536 SPF)
  69. Compression mode                         : Lossy
  70. Stream size                              : 309 MiB (5%)
  71. Title                                    : Cantonese
  72. Language                                 : Chinese
  73. Service kind                             : Complete Main
  74. Default                                  : Yes
  75. Forced                                   : No
  76. Menu
  77. 00:00:00.000                             : en:Chapter 01
  78. 00:10:16.616                             : en:Chapter 02
  79. 00:22:08.994                             : en:Chapter 03
  80. 00:29:42.406                             : en:Chapter 04
  81. 00:44:48.895                             : en:Chapter 05
  82. 00:52:09.793                             : en:Chapter 06
  83. 01:01:38.486                             : en:Chapter 07
  84. 01:09:17.153                             : en:Chapter 08
  85. 01:16:06.562                             : en:Chapter 09
  86. 01:25:46.933                             : en:Chapter 10





此处一般会放置磁力链或种子下载链接,不过此链接需要注册会员才能看到,点击“立即注册”
磁力链下载【下载链接仅对注册会员开放,登陆后可见】
BT9527电影天堂 1、BT9527电影天堂提供的BT文件均来源于互联网抓取,只供网友学习交流、技术提升使用。
2、我们遵守BitTorrent点对点协议原则,任何版权问题请联系原资源发布商,我们不处理任何版权纠纷,谢谢!如有争议请联系邮箱:BT9527#hotmail.com(#换成@)
3、如果您发现某页面或地址有错误,请联系站长邮箱BT9527#hotmail.com(#换成@),我们会尽快处理。您的热心是对BT9527电影天堂最大的支持。
4、本站建议去正规影院观看电影以支持电影行业发展。
最新回复 (0)

你可以在 登录 or 注册 后,对此帖发表评论!

返回
发新帖