单身男女2[国粤多音轨/简繁英字幕].Don't.Go.Breaking.My.Heart.2.2014.BluRay.1080p.x265.10bit.2Audio-MiniHD 5.04GB

版主小s 13天前 101

✔资源类型:暂未分类   ✔电影年份:2014   ✔电影地区:香港   ✔电影分类:喜剧

◎译  名 单身男女2 / Don't Go Breaking My Heart 2
◎片  名 單身男女II
◎年  代 2014
◎产  地 中国香港 / 中国大陆
◎类  别 喜剧 / 爱情
◎语  言 汉语普通话 / 粤语
◎上映日期 2014-11-11(中国大陆) / 2014-11-13(中国香港)
◎IMDb链接 https://www.imdb.com/title/tt3121474/
◎豆瓣评分 5.5/10 (102557人评价)
◎豆瓣链接 https://movie.douban.com/subject/21359619/
◎片  长 113分钟
◎导  演 杜琪峰 Johnnie To (id:1160186)
       麦启光 Albert Kai-kwong Mak (id:1349070)
◎编  剧 韦家辉 Ka-Fai Wai (id:1017843)
       陈伟斌 Ryker Chan (id:1326900)
       余曦 Xi Yu (id:1327440)
       游乃海 Nai-Hoi Yau (id:1161310)
◎演  员 古天乐 Louis Koo (id:1027577)
       杨千嬅 Miriam Yeung (id:1173971)
       高圆圆 Yuanyuan Gao (id:1018980)
       周渝民 Vic Chou (id:1274366)
       吴彦祖 Daniel Wu (id:1027502)
       林雪 Suet Lam (id:1274279)
       周祉君 Aaron Chow (id:1365642)
       方志驹 Vernon Fong (id:1378868)
       陈郁宪 Donovan Chan (id:1417027)
       陈道好 Catherine Chan (id:1388161)
       杜琪峰 Johnnie To (id:1160186)
       李泠 Ling Li (id:1396476)
       李少红 Shaohong Li (id:1274842)
       廖庆松 Ching-Song Liao (id:1312523)
       余家安 Bruce Yu (id:1301555)
       陈迪凯 Water Chan Tik-Hoi (id:1345570)
       刘俐 Kibby Lau (id:1333238)

◎简  介
  即将和方启宏(吴彦祖 饰)步入婚姻殿堂的程子欣(高圆圆 饰)幸福满满,她偶遇最崇拜的股市女强人杨鸯鸯(杨千嬅 饰),于是自我推荐加入了杨的公司。无巧不成书,张申然(古天乐 饰)的公司刚好在鸯鸯公司的对面,两人之前又因为某次邂逅成为男女朋友。性格大条豪爽的鸯鸯知道申然花心轻浮的行径,却只采取反向操作的措施,一心期望能成为申然最后一个女人。子欣的哥哥程子建(周渝民 饰)浪漫气息浓郁,他偶遇失落中的鸯鸯,神奇的章鱼“灯神”让他们成为好朋友,子建对鸯鸯的好感也与日俱增。终于迎来了申然的生日,谁知派对最终变成了大灾难,混乱中的申然也惊讶地发现子欣就在不远的地方。                                    
                                从未熄灭的爱火再度点燃,三男两女的爱情战争进入了白热化的阶段……
  1. ##### MediaInfo ######
  2. General
  3. Unique ID                                : 189761900831386507316425279906762274673 (0x8EC2D00DDC652EC72A055189CCFD3771)
  4. Complete name                            : Don't.Go.Breaking.My.Heart.2.2014.BluRay.1080p.x265.10bit.2Audio-MiniHD.mkv
  5. Format                                   : Matroska
  6. Format version                           : Version 4
  7. File size                                : 5.04 GiB
  8. Duration                                 : 1 h 53 min
  9. Overall bit rate                         : 6 376 kb/s
  10. Encoded date                             : UTC 2018-10-24 03:39:13
  11. Writing application                      : mkvmerge v20.0.0 ('I Am The Sun') 64-bit
  12. Writing library                          : libebml v1.3.5 + libmatroska v1.4.8
  13. Video
  14. ID                                       : 6
  15. Format                                   : HEVC
  16. Format/Info                              : High Efficiency Video Coding
  17. Format profile                           : Main 10@L4@Main
  18. Codec ID                                 : V_MPEGH/ISO/HEVC
  19. Duration                                 : 1 h 53 min
  20. Bit rate                                 : 4 969 kb/s
  21. Width                                    : 1 920 pixels
  22. Height                                   : 816 pixels
  23. Display aspect ratio                     : 2.35:1
  24. Frame rate mode                          : Constant
  25. Frame rate                               : 24.000 FPS
  26. Color space                              : YUV
  27. Chroma subsampling                       : 4:2:0
  28. Bit depth                                : 10 bits
  29. Bits/(Pixel*Frame)                       : 0.132
  30. Stream size                              : 3.93 GiB (78%)
  31. Writing library                          : x265 2.8+1-478bfe2b7673:[Windows][GCC 7.3.0][64 bit] 10bit
  32. Encoding settings                        : cpuid=533541111039 / frame-threads=4 / numa-pools=16 / wpp / no-pmode / no-pme / no-psnr / no-ssim / log-level=2 / csv / csv-log-level=0 / input-csp=1 / input-res=1920x816 / interlace=0 / total-frames=163047 / level-idc=0 / high-tier=1 / uhd-bd=0 / ref=5 / no-allow-non-conformance / no-repeat-headers / annexb / no-aud / no-hrd / info / hash=0 / no-temporal-layers / no-open-gop / min-keyint=1 / keyint=360 / gop-lookahead=0 / bframes=9 / b-adapt=2 / b-pyramid / bframe-bias=0 / rc-lookahead=60 / lookahead-slices=4 / NTMzNTQ=uuDQuD2mJt9fsCf / scenecut=40 / radl=0 / no-intra-refresh / ctu=32 / min-cu-size=8 / rect / no-amp / max-tu-size=16 / tu-inter-depth=2 / tu-intra-depth=2 / limit-tu=4 / rdoq-level=1 / dynamic-rd=0.00 / ssim-rd / signhide / no-tskip / nr-intra=0 / nr-inter=0 / no-constrained-intra / no-strong-intra-smoothing / max-merge=3 / limit-refs=2 / limit-modes / me=3 / subme=5 / merange=25 / temporal-mvp / weightp / weightb / no-analyze-src-pics / deblock=-1:-1 / no-sao / no-sao-non-deblock / rd=4 / no-early-skip / rskip / no-fast-intra / no-tskip-fast / no-cu-lossless / b-intra / no-splitrd-skip / rdpenalty=1 / psy-rd=0.00 / psy-rdoq=5.00 / no-rd-refine / no-lossless / cbqpoffs=-2 / crqpoffs=-2 / rc=crf / crf=18.0 / qcomp=0.70 / qpstep=4 / stats-write=0 / stats-read=0 / ipratio=1.40 / pbratio=1.30 / aq-mode=1 / aq-strength=0.80 / cutree / zone-count=0 / no-strict-cbr / qg-size=16 / no-rc-grain / qpmax=69 / qpmin=0 / no-const-vbv / sar=0 / overscan=0 / videoformat=5 / range=0 / colorprim=1 / transfer=2 / colormatrix=2 / chromaloc=0 / display-window=0 / max-cll=0,0 / min-luma=0 / max-luma=1023 / log2-max-poc-lsb=8 / vui-timing-info / vui-hrd-info / slices=1 / no-opt-qp-pps / no-opt-ref-list-length-pps / no-multi-pass-opt-rps / scenecut-bias=0.05 / no-opt-cu-delta-qp / no-aq-motion / no-hdr / no-hdr-opt / no-dhdr10-opt / no-idr-recovery-sei / analysis-reuse-level=5 / scale-factor=0 / refine-intra=0 / refine-inter=0 / refine-mv=0 / no-limit-sao / ctu-info=0 / no-lowpass-dct / refine-mv-type=0 / copy-pic=1 / max-ausize-factor=1.0 / no-dynamic-refine / no-single-sei
  33. Language                                 : Chinese
  34. Default                                  : Yes
  35. Forced                                   : No
  36. Color range                              : Limited
  37. Color primaries                          : BT.709
  38. Audio #1
  39. ID                                       : 1
  40. Format                                   : AC-3
  41. Format/Info                              : Audio Coding 3
  42. Commercial name                          : Dolby Digital
  43. Codec ID                                 : A_AC3
  44. Duration                                 : 1 h 53 min
  45. Bit rate mode                            : Constant
  46. Bit rate                                 : 640 kb/s
  47. Channel(s)                               : 6 channels
  48. Channel layout                           : L R C LFE Ls Rs
  49. Sampling rate                            : 48.0 kHz
  50. Frame rate                               : 31.250 FPS (1536 SPF)
  51. Compression mode                         : Lossy
  52. Stream size                              : 518 MiB (10%)
  53. Title                                    : 粤语
  54. Language                                 : Chinese
  55. Service kind                             : Complete Main
  56. Default                                  : Yes
  57. Forced                                   : No
  58. Audio #2
  59. ID                                       : 2
  60. Format                                   : AC-3
  61. Format/Info                              : Audio Coding 3
  62. Commercial name                          : Dolby Digital
  63. Codec ID                                 : A_AC3
  64. Duration                                 : 1 h 53 min
  65. Bit rate mode                            : Constant
  66. Bit rate                                 : 640 kb/s
  67. Channel(s)                               : 6 channels
  68. Channel layout                           : L R C LFE Ls Rs
  69. Sampling rate                            : 48.0 kHz
  70. Frame rate                               : 31.250 FPS (1536 SPF)
  71. Compression mode                         : Lossy
  72. Stream size                              : 518 MiB (10%)
  73. Title                                    : 国语
  74. Language                                 : Chinese
  75. Service kind                             : Complete Main
  76. Default                                  : No
  77. Forced                                   : No
  78. Text #1
  79. ID                                       : 3
  80. Format                                   : PGS
  81. Muxing mode                              : zlib
  82. Codec ID                                 : S_HDMV/PGS
  83. Codec ID/Info                            : Picture based subtitle format used on BDs/HD-DVDs
  84. Title                                    : 繁体
  85. Language                                 : Chinese
  86. Default                                  : Yes
  87. Forced                                   : No
  88. Text #2
  89. ID                                       : 4
  90. Format                                   : PGS
  91. Muxing mode                              : zlib
  92. Codec ID                                 : S_HDMV/PGS
  93. Codec ID/Info                            : Picture based subtitle format used on BDs/HD-DVDs
  94. Title                                    : 简体
  95. Language                                 : Chinese
  96. Default                                  : No
  97. Forced                                   : No
  98. Text #3
  99. ID                                       : 5
  100. Format                                   : PGS
  101. Muxing mode                              : zlib
  102. Codec ID                                 : S_HDMV/PGS
  103. Codec ID/Info                            : Picture based subtitle format used on BDs/HD-DVDs
  104. Title                                    : 英文
  105. Language                                 : English
  106. Default                                  : No
  107. Forced                                   : No
  108. Menu
  109. 00:00:00.000                             : en:Chapter 01
  110. 00:07:46.333                             : en:Chapter 02
  111. 00:11:27.250                             : en:Chapter 03
  112. 00:17:26.791                             : en:Chapter 04
  113. 00:22:31.833                             : en:Chapter 05
  114. 00:28:07.333                             : en:Chapter 06
  115. 00:33:58.208                             : en:Chapter 07
  116. 00:39:10.625                             : en:Chapter 08
  117. 00:45:52.208                             : en:Chapter 09
  118. 00:51:07.458                             : en:Chapter 10
  119. 00:56:00.958                             : en:Chapter 11
  120. 01:01:08.666                             : en:Chapter 12
  121. 01:07:47.125                             : en:Chapter 13
  122. 01:14:01.541                             : en:Chapter 14
  123. 01:22:52.958                             : en:Chapter 15
  124. 01:26:19.125                             : en:Chapter 16
  125. 01:29:53.791                             : en:Chapter 17
  126. 01:35:02.791                             : en:Chapter 18
  127. 01:41:52.833                             : en:Chapter 19
  128. 01:49:12.083                             : en:Chapter 20





此处一般会放置磁力链或种子下载链接,不过此链接需要注册会员才能看到,点击“立即注册”
磁力链下载【下载链接仅对注册会员开放,登陆后可见】
BT9527电影天堂 1、BT9527电影天堂提供的BT文件均来源于互联网抓取,只供网友学习交流、技术提升使用。
2、我们遵守BitTorrent点对点协议原则,任何版权问题请联系原资源发布商,我们不处理任何版权纠纷,谢谢!如有争议请联系邮箱:BT9527#hotmail.com(#换成@)
3、如果您发现某页面或地址有错误,请联系站长邮箱BT9527#hotmail.com(#换成@),我们会尽快处理。您的热心是对BT9527电影天堂最大的支持。
4、本站建议去正规影院观看电影以支持电影行业发展。
最新回复 (0)

你可以在 登录 or 注册 后,对此帖发表评论!

返回
发新帖