单身男女[国粤多音轨/简繁英字幕].Don't.Go.Breaking.My.Heart.2011.BluRay.1080p.x265.10bit.2Audio-MiniHD 5.81GB

版主小s 3月前 213

✔资源类型:暂未分类   ✔电影年份:2011   ✔电影地区:香港   ✔电影分类:喜剧

◎译  名 单身男女 / Don’t Go Breaking My Heart
◎片  名 單身男女
◎年  代 2011
◎产  地 中国香港
◎类  别 喜剧 / 爱情
◎语  言 粤语 / 汉语普通话
◎上映日期 2011-03-31(中国香港/中国大陆)
◎IMDb链接 https://www.imdb.com/title/tt1776143/
◎豆瓣评分 6.8/10 (279102人评价)
◎豆瓣链接 https://movie.douban.com/subject/4724739/
◎片  长 115分钟
◎导  演 杜琪峰 Johnnie To (id:1160186)
◎编  剧 韦家辉 Ka-Fai Wai (id:1017843)
       游乃海 Nai-Hoi Yau (id:1161310)
       欧文杰 Jevons Au Man-Kit (id:1326899)
       陈伟斌 Ryker Chan (id:1326900)
◎演  员 古天乐 Louis Koo (id:1027577)
       吴彦祖 Daniel Wu (id:1027502)
       高圆圆 Yuanyuan Gao (id:1018980)
       林雪 Suet Lam (id:1274279)
       尹子维 Terence Yin (id:1045571)
       李施嬅 Selena Lee (id:1005727)
       贾晓晨 J.J. Jia (id:1274760)
       梁天尺 Leung Tin Chak (id:1407763)
       王志华 Zhihua Wang (id:1321487)
       区轩玮 John Au (id:1342910)
       瑞莎 Larisa Bakurova (id:1314362)
       林慧倩 Giselle Lam (id:1380809)
       杜琪峰 Johnnie To (id:1160186)
       泽维尔·让诺 Xavier Jamaux (id:1021607)
       郑兆强 Siu-keung Cheng (id:1280597)
       李阳汐 Yangxi Li (id:1342137)
       庄澄 John Chong (id:1280710)

◎简  介
  为追寻爱情,苏州女孩程子欣(高圆圆 饰)随男友来至香港,在一家金融公司供职。谁知男友移情别恋,令子欣备受打击。偶然机缘,她结识了正处于瓶颈期的建筑师方启宏(吴彦祖 饰),二人互相勉励,子欣丢掉了关于前男友的一切,启宏也决定重新出发,并相约一周后给子欣看最新的设计图。谁知约会当晚,子欣却失约了。原来在子欣的办公室对面,另一家公司的老板张申然(古天乐 饰)长久以来一直注视着她。在她失落期间,两人通过彩色贴纸交流,子欣也渐渐喜欢上了这个大男孩。子欣忘记了和启宏的约定,与申然约在某咖啡厅见面,而申然却睡在了另一个女人的床上。                                    
                                阴差阳错,让三个人的缘分暂时中断。直到三年后的一天,未了的情缘继续上演……

◎获奖情况 (共6项)
  第31届香港电影金像奖 (2012)
  最佳编剧(提名)
  最佳女主角(提名)
   └──高圆圆 (id:1018980)

  第14届中国电影华表奖 (2011)
  优秀合拍片奖(提名)

  第12届华语电影传媒大奖 (2012)
  观众票选最受瞩目女演员(提名)
   └──高圆圆 (id:1018980)
  最佳编剧(提名)

  第2届豆瓣电影鑫像奖 (2012)
  豆渣单元 最渣女演员(华语)(提名)
   └──高圆圆 (id:1018980)

  1. ##### MediaInfo ######
  2. General
  3. Unique ID                                : 151470168094368489294897918973198144168 (0x71F417DEABA1CBAC93EE924F970712A8)
  4. Complete name                            : Don't.Go.Breaking.My.Heart.2011.BluRay.1080p.x265.10bit.2Audio-MiniHD.mkv
  5. Format                                   : Matroska
  6. Format version                           : Version 4
  7. File size                                : 5.81 GiB
  8. Duration                                 : 1 h 54 min
  9. Overall bit rate                         : 7 233 kb/s
  10. Encoded date                             : UTC 2018-11-11 03:50:36
  11. Writing application                      : mkvmerge v20.0.0 ('I Am The Sun') 64-bit
  12. Writing library                          : libebml v1.3.5 + libmatroska v1.4.8
  13. Video
  14. ID                                       : 1
  15. Format                                   : HEVC
  16. Format/Info                              : High Efficiency Video Coding
  17. Format profile                           : Main 10@L4@Main
  18. Codec ID                                 : V_MPEGH/ISO/HEVC
  19. Duration                                 : 1 h 54 min
  20. Bit rate                                 : 5 809 kb/s
  21. Width                                    : 1 918 pixels
  22. Height                                   : 816 pixels
  23. Display aspect ratio                     : 2.35:1
  24. Frame rate mode                          : Constant
  25. Frame rate                               : 24.000 FPS
  26. Color space                              : YUV
  27. Chroma subsampling                       : 4:2:0
  28. Bit depth                                : 10 bits
  29. Bits/(Pixel*Frame)                       : 0.155
  30. Stream size                              : 4.66 GiB (80%)
  31. Writing library                          : x265 2.8+1-478bfe2b7673:[Windows][GCC 7.3.0][64 bit] 10bit
  32. Encoding settings                        : cpuid=533541111039 / frame-threads=4 / numa-pools=16 / wpp / no-pmode / no-pme / no-psnr / no-ssim / log-level=2 / csv / csv-log-level=0 / input-csp=1 / input-res=1918x816 / interlace=0 / total-frames=165512 / level-idc=0 / high-tier=1 / uhd-bd=0 / ref=5 / no-allow-non-conformance / no-repeat-headers / annexb / no-aud / no-hrd / info / hash=0 / no-temporal-layers / no-open-gop / min-keyint=1 / keyint=360 / gop-lookahead=0 / bframes=9 / b-adapt=2 / b-pyramid / bframe-bias=0 / rc-lookahead=60 / lookahead-slices=4 / NTMzNTQ=uuDQuD2mJt9fsCf / scenecut=40 / radl=0 / no-intra-refresh / ctu=32 / min-cu-size=8 / rect / no-amp / max-tu-size=16 / tu-inter-depth=2 / tu-intra-depth=2 / limit-tu=4 / rdoq-level=1 / dynamic-rd=0.00 / ssim-rd / signhide / no-tskip / nr-intra=0 / nr-inter=0 / no-constrained-intra / no-strong-intra-smoothing / max-merge=3 / limit-refs=2 / limit-modes / me=3 / subme=5 / merange=25 / temporal-mvp / weightp / weightb / no-analyze-src-pics / deblock=-1:-1 / no-sao / no-sao-non-deblock / rd=4 / no-early-skip / rskip / no-fast-intra / no-tskip-fast / no-cu-lossless / b-intra / no-splitrd-skip / rdpenalty=1 / psy-rd=0.00 / psy-rdoq=5.00 / no-rd-refine / no-lossless / cbqpoffs=-2 / crqpoffs=-2 / rc=crf / crf=14.0 / qcomp=0.70 / qpstep=4 / stats-write=0 / stats-read=0 / ipratio=1.40 / pbratio=1.30 / aq-mode=1 / aq-strength=0.80 / cutree / zone-count=0 / no-strict-cbr / qg-size=16 / no-rc-grain / qpmax=69 / qpmin=0 / no-const-vbv / sar=0 / overscan=0 / videoformat=5 / range=0 / colorprim=1 / transfer=2 / colormatrix=2 / chromaloc=0 / display-window=0 / max-cll=0,0 / min-luma=0 / max-luma=1023 / log2-max-poc-lsb=8 / vui-timing-info / vui-hrd-info / slices=1 / no-opt-qp-pps / no-opt-ref-list-length-pps / no-multi-pass-opt-rps / scenecut-bias=0.05 / no-opt-cu-delta-qp / no-aq-motion / no-hdr / no-hdr-opt / no-dhdr10-opt / no-idr-recovery-sei / analysis-reuse-level=5 / scale-factor=0 / refine-intra=0 / refine-inter=0 / refine-mv=0 / no-limit-sao / ctu-info=0 / no-lowpass-dct / refine-mv-type=0 / copy-pic=1 / max-ausize-factor=1.0 / no-dynamic-refine / no-single-sei
  33. Language                                 : Chinese
  34. Default                                  : Yes
  35. Forced                                   : No
  36. Color range                              : Limited
  37. Color primaries                          : BT.709
  38. Audio #1
  39. ID                                       : 2
  40. Format                                   : AC-3
  41. Format/Info                              : Audio Coding 3
  42. Commercial name                          : Dolby Digital
  43. Codec ID                                 : A_AC3
  44. Duration                                 : 1 h 54 min
  45. Bit rate mode                            : Constant
  46. Bit rate                                 : 640 kb/s
  47. Channel(s)                               : 6 channels
  48. Channel layout                           : L R C LFE Ls Rs
  49. Sampling rate                            : 48.0 kHz
  50. Frame rate                               : 31.250 FPS (1536 SPF)
  51. Compression mode                         : Lossy
  52. Stream size                              : 526 MiB (9%)
  53. Title                                    : 粤语
  54. Language                                 : Chinese
  55. Service kind                             : Complete Main
  56. Default                                  : Yes
  57. Forced                                   : No
  58. Audio #2
  59. ID                                       : 3
  60. Format                                   : AC-3
  61. Format/Info                              : Audio Coding 3
  62. Commercial name                          : Dolby Digital
  63. Codec ID                                 : A_AC3
  64. Duration                                 : 1 h 54 min
  65. Bit rate mode                            : Constant
  66. Bit rate                                 : 640 kb/s
  67. Channel(s)                               : 6 channels
  68. Channel layout                           : L R C LFE Ls Rs
  69. Sampling rate                            : 48.0 kHz
  70. Frame rate                               : 31.250 FPS (1536 SPF)
  71. Compression mode                         : Lossy
  72. Stream size                              : 526 MiB (9%)
  73. Title                                    : 国语
  74. Language                                 : Chinese
  75. Service kind                             : Complete Main
  76. Default                                  : No
  77. Forced                                   : No
  78. Text #1
  79. ID                                       : 4
  80. Format                                   : PGS
  81. Muxing mode                              : zlib
  82. Codec ID                                 : S_HDMV/PGS
  83. Codec ID/Info                            : Picture based subtitle format used on BDs/HD-DVDs
  84. Title                                    : 繁体
  85. Language                                 : Chinese
  86. Default                                  : Yes
  87. Forced                                   : No
  88. Text #2
  89. ID                                       : 5
  90. Format                                   : PGS
  91. Muxing mode                              : zlib
  92. Codec ID                                 : S_HDMV/PGS
  93. Codec ID/Info                            : Picture based subtitle format used on BDs/HD-DVDs
  94. Title                                    : 简体
  95. Language                                 : Chinese
  96. Default                                  : No
  97. Forced                                   : No
  98. Text #3
  99. ID                                       : 6
  100. Format                                   : PGS
  101. Muxing mode                              : zlib
  102. Codec ID                                 : S_HDMV/PGS
  103. Codec ID/Info                            : Picture based subtitle format used on BDs/HD-DVDs
  104. Title                                    : 英文
  105. Language                                 : English
  106. Default                                  : No
  107. Forced                                   : No
  108. Menu
  109. 00:00:00.000                             : en:Chapter 01
  110. 00:06:06.791                             : en:Chapter 02
  111. 00:12:26.416                             : en:Chapter 03
  112. 00:20:02.625                             : en:Chapter 04
  113. 00:24:34.875                             : en:Chapter 05
  114. 00:28:05.375                             : en:Chapter 06
  115. 00:37:24.625                             : en:Chapter 07
  116. 00:41:30.208                             : en:Chapter 08
  117. 00:45:45.291                             : en:Chapter 09
  118. 00:50:50.750                             : en:Chapter 10
  119. 00:58:16.125                             : en:Chapter 11
  120. 01:05:50.166                             : en:Chapter 12
  121. 01:10:56.791                             : en:Chapter 13
  122. 01:17:04.083                             : en:Chapter 14
  123. 01:21:28.750                             : en:Chapter 15
  124. 01:26:01.708                             : en:Chapter 16
  125. 01:31:57.708                             : en:Chapter 17
  126. 01:39:34.583                             : en:Chapter 18
  127. 01:43:23.125                             : en:Chapter 19
  128. 01:48:27.041                             : en:Chapter 20





此处一般会放置磁力链或种子下载链接,不过此链接需要注册会员才能看到,点击“立即注册”
磁力链下载【下载链接仅对注册会员开放,登陆后可见】
BT9527电影天堂 1、BT9527电影天堂提供的BT文件均来源于互联网抓取,只供网友学习交流、技术提升使用。
2、我们遵守BitTorrent点对点协议原则,任何版权问题请联系原资源发布商,我们不处理任何版权纠纷,谢谢!如有争议请联系邮箱:BT9527#hotmail.com(#换成@)
3、如果您发现某页面或地址有错误,请联系站长邮箱BT9527#hotmail.com(#换成@),我们会尽快处理。您的热心是对BT9527电影天堂最大的支持。
4、本站建议去正规影院观看电影以支持电影行业发展。
最新回复 (0)

你可以在 登录 or 注册 后,对此帖发表评论!

返回