半生缘[国粤英多音轨/简繁英字幕].Eighteen.Springs.1997.BluRay.1080p.x265.10bit.3Audio-MiniHD 7.09GB

版主小s 7天前 35

✔资源类型:暂未分类   ✔电影年份:更 早   ✔电影地区:香港   ✔电影分类:剧情

◎译  名 半生缘 / Eighteen Springs / Boon Sang Yuen
◎片  名 半生緣
◎年  代 1997
◎产  地 中国香港 / 中国大陆
◎类  别 剧情 / 爱情
◎语  言 粤语 / 汉语普通话
◎上映日期 1997-09-12(中国大陆)
◎IMDb链接 https://www.imdb.com/title/tt0127468/
◎豆瓣评分 7.9/10 (81330人评价)
◎豆瓣链接 https://movie.douban.com/subject/1299624/
◎片  长 126分钟
◎导  演 许鞍华 Ann Hui (id:1053570)
◎编  剧 张爱玲 Eileen Chang (id:1076575)
       陈建忠 John Chan Kin-Chung (id:1280427)
◎演  员 黎明 Leon Lai (id:1036978)
       吴倩莲 Chien-lien Wu (id:1166703)
       梅艳芳 Anita Mui (id:1047976)
       黄磊 Lei Huang (id:1037715)
       葛优 You Ge (id:1000905)
       吴辰君 Annie Wu (id:1023550)
       王志文 Zhiwen Wang (id:1010208)
       朱曼芳 Manfang Zhu (id:1318473)
       刘昌伟 Changwei  Liu (id:1317422)
       陈奇 Qi Chen (id:1317069)
       吴云芳 Yunfang Wu (id:1030935)
       江俊 Jun Jiang (id:1405256)
       张引棣 Yindi Zhang (id:1405257)
       段炼 Lian Duan (id:1337220)
       朱亚英 Yaying Zhu (id:1318861)
       吕晶 Jingjing Lv (id:1322464)
       许榕真 Rongzhen Xu (id:1316750)
       段炼 Lian Duan (id:1438878)
       许鞍华 Ann Hui (id:1053570)
       黄百鸣 Raymond Wong (id:1275277)
       安德宝 Debao An (id:1372192)
       王羽 Yu Wang (id:1002908)
       叶小钢 Xiaogang Ye (id:1301448)
       李屏宾 Mark Lee Ping Bing (id:1274482)
       黄义顺 Yee Shun Wong (id:1301206)
       潘雄 Hung Poon (id:1294717)
       黄仁逵 Yank Wong (id:1301211)
       诸阿六 Aliu Zhu (id:1447841)
       莫均杰 Kwan Kit Mok (id:1292292)
       钱江汉 Chin Cub (id:1328093)

◎简  介
  1930年代的上海,在同一间工厂做工的世钧(黎明)和曼桢(吴倩莲)成为恋人。曼桢早年丧父,姐姐曼璐(梅艳芳)为了养活一家老小,心痛离别恋人去当舞女赚钱,最终嫁给了有妇之夫祝鸿才(葛优)。                                    
                                世钧收到告急家书回到南京,方知家人召回只为让其成亲。因为性格上的软弱,也因久等不来曼桢的书信,世钧最终迎娶了他并不喜欢的门当户对的翠芝(吴辰君)。上海这边,不能生育的曼璐为保全自已的地位,设计令曼桢怀上了祝鸿才的孩子,葬送了曼桢与世钧的爱情。曼璐死后,曼桢为了孩子委身祝鸿才。两个有缘无分的人就这样错过情缘。

◎获奖情况 (共12项)
  第34届台北金马影展 (1997)
  金马奖 最佳美术设计(提名)
  金马奖 最佳造型设计
   └──莫均杰 (id:1292292)
  金马奖 最佳原创歌曲(提名)

  第17届香港电影金像奖 (1998)
  最佳女主角(提名)
   └──吴倩莲 (id:1166703)
  最佳女配角
   └──梅艳芳 (id:1047976)
  最佳摄影(提名)
   └──李屏宾 (id:1274482)
  最佳美术指导(提名)
  最佳服装造型设计(提名)
   └──莫均杰 (id:1292292)
  最佳原创电影音乐(提名)
   └──叶小钢 (id:1301448)
  最佳原创电影歌曲(提名)
   └──黎明 (id:1036978)

  第10届东京国际电影节 (1997)
  主竞赛单元 最佳影片(提名)
   └──许鞍华 (id:1053570)

  第18届中国电影金鸡奖 (1998)
  最佳合拍片

  1. ##### MediaInfo ######
  2. General
  3. Unique ID                                : 331847715529184219033814647226607433488 (0xF9A78B9449397A087661107205F57710)
  4. Complete name                            : Eighteen.Springs.1997.BluRay.1080p.x265.10bit.3Audio-MiniHD.mkv
  5. Format                                   : Matroska
  6. Format version                           : Version 4
  7. File size                                : 7.09 GiB
  8. Duration                                 : 2 h 6 min
  9. Overall bit rate                         : 8 044 kb/s
  10. Encoded date                             : UTC 2018-10-14 10:57:47
  11. Writing application                      : mkvmerge v20.0.0 ('I Am The Sun') 64-bit
  12. Writing library                          : libebml v1.3.5 + libmatroska v1.4.8
  13. Video
  14. ID                                       : 1
  15. Format                                   : HEVC
  16. Format/Info                              : High Efficiency Video Coding
  17. Format profile                           : Main 10@L4@Main
  18. Codec ID                                 : V_MPEGH/ISO/HEVC
  19. Duration                                 : 2 h 6 min
  20. Bit rate                                 : 6 732 kb/s
  21. Width                                    : 1 920 pixels
  22. Height                                   : 1 080 pixels
  23. Display aspect ratio                     : 16:9
  24. Frame rate mode                          : Constant
  25. Frame rate                               : 24.000 FPS
  26. Color space                              : YUV
  27. Chroma subsampling                       : 4:2:0
  28. Bit depth                                : 10 bits
  29. Bits/(Pixel*Frame)                       : 0.135
  30. Stream size                              : 5.94 GiB (84%)
  31. Writing library                          : x265 2.8+1-478bfe2b7673:[Windows][GCC 7.3.0][64 bit] 10bit
  32. Encoding settings                        : cpuid=533541111039 / frame-threads=4 / numa-pools=16 / wpp / no-pmode / no-pme / no-psnr / no-ssim / log-level=2 / csv / csv-log-level=0 / input-csp=1 / input-res=1920x1080 / interlace=0 / total-frames=181761 / level-idc=0 / high-tier=1 / uhd-bd=0 / ref=5 / no-allow-non-conformance / no-repeat-headers / annexb / no-aud / no-hrd / info / hash=0 / no-temporal-layers / no-open-gop / min-keyint=1 / keyint=360 / gop-lookahead=0 / bframes=9 / b-adapt=2 / b-pyramid / bframe-bias=0 / rc-lookahead=60 / lookahead-slices=4 / NTMzNTQ=uuDQuD2mJt9fsCf / scenecut=40 / radl=0 / no-intra-refresh / ctu=32 / min-cu-size=8 / rect / no-amp / max-tu-size=16 / tu-inter-depth=2 / tu-intra-depth=2 / limit-tu=4 / rdoq-level=1 / dynamic-rd=0.00 / ssim-rd / signhide / no-tskip / nr-intra=0 / nr-inter=0 / no-constrained-intra / no-strong-intra-smoothing / max-merge=3 / limit-refs=2 / limit-modes / me=3 / subme=5 / merange=25 / temporal-mvp / weightp / weightb / no-analyze-src-pics / deblock=-1:-1 / no-sao / no-sao-non-deblock / rd=4 / no-early-skip / rskip / no-fast-intra / no-tskip-fast / no-cu-lossless / b-intra / no-splitrd-skip / rdpenalty=1 / psy-rd=0.00 / psy-rdoq=5.00 / no-rd-refine / no-lossless / cbqpoffs=-2 / crqpoffs=-2 / rc=crf / crf=18.0 / qcomp=0.70 / qpstep=4 / stats-write=0 / stats-read=0 / ipratio=1.40 / pbratio=1.30 / aq-mode=1 / aq-strength=0.80 / cutree / zone-count=0 / no-strict-cbr / qg-size=16 / no-rc-grain / qpmax=69 / qpmin=0 / no-const-vbv / sar=0 / overscan=0 / videoformat=5 / range=0 / colorprim=1 / transfer=2 / colormatrix=2 / chromaloc=0 / display-window=0 / max-cll=0,0 / min-luma=0 / max-luma=1023 / log2-max-poc-lsb=8 / vui-timing-info / vui-hrd-info / slices=1 / no-opt-qp-pps / no-opt-ref-list-length-pps / no-multi-pass-opt-rps / scenecut-bias=0.05 / no-opt-cu-delta-qp / no-aq-motion / no-hdr / no-hdr-opt / no-dhdr10-opt / no-idr-recovery-sei / analysis-reuse-level=5 / scale-factor=0 / refine-intra=0 / refine-inter=0 / refine-mv=0 / no-limit-sao / ctu-info=0 / no-lowpass-dct / refine-mv-type=0 / copy-pic=1 / max-ausize-factor=1.0 / no-dynamic-refine / no-single-sei
  33. Language                                 : Chinese
  34. Default                                  : Yes
  35. Forced                                   : No
  36. Color range                              : Limited
  37. Color primaries                          : BT.709
  38. Audio #1
  39. ID                                       : 2
  40. Format                                   : AC-3
  41. Format/Info                              : Audio Coding 3
  42. Commercial name                          : Dolby Digital
  43. Codec ID                                 : A_AC3
  44. Duration                                 : 2 h 6 min
  45. Bit rate mode                            : Constant
  46. Bit rate                                 : 384 kb/s
  47. Channel(s)                               : 1 channel
  48. Channel layout                           : C
  49. Sampling rate                            : 48.0 kHz
  50. Frame rate                               : 31.250 FPS (1536 SPF)
  51. Compression mode                         : Lossy
  52. Stream size                              : 347 MiB (5%)
  53. Title                                    : 粤语
  54. Language                                 : Chinese
  55. Service kind                             : Complete Main
  56. Default                                  : Yes
  57. Forced                                   : No
  58. Audio #2
  59. ID                                       : 3
  60. Format                                   : AC-3
  61. Format/Info                              : Audio Coding 3
  62. Commercial name                          : Dolby Digital
  63. Codec ID                                 : A_AC3
  64. Duration                                 : 2 h 6 min
  65. Bit rate mode                            : Constant
  66. Bit rate                                 : 384 kb/s
  67. Channel(s)                               : 1 channel
  68. Channel layout                           : C
  69. Sampling rate                            : 48.0 kHz
  70. Frame rate                               : 31.250 FPS (1536 SPF)
  71. Compression mode                         : Lossy
  72. Stream size                              : 347 MiB (5%)
  73. Title                                    : 国语
  74. Language                                 : Chinese
  75. Service kind                             : Complete Main
  76. Default                                  : No
  77. Forced                                   : No
  78. Audio #3
  79. ID                                       : 4
  80. Format                                   : AC-3
  81. Format/Info                              : Audio Coding 3
  82. Commercial name                          : Dolby Digital
  83. Codec ID                                 : A_AC3
  84. Duration                                 : 2 h 6 min
  85. Bit rate mode                            : Constant
  86. Bit rate                                 : 384 kb/s
  87. Channel(s)                               : 1 channel
  88. Channel layout                           : C
  89. Sampling rate                            : 48.0 kHz
  90. Frame rate                               : 31.250 FPS (1536 SPF)
  91. Compression mode                         : Lossy
  92. Stream size                              : 347 MiB (5%)
  93. Title                                    : 英语
  94. Language                                 : English
  95. Service kind                             : Complete Main
  96. Default                                  : No
  97. Forced                                   : No
  98. Text #1
  99. ID                                       : 5
  100. Format                                   : PGS
  101. Muxing mode                              : zlib
  102. Codec ID                                 : S_HDMV/PGS
  103. Codec ID/Info                            : Picture based subtitle format used on BDs/HD-DVDs
  104. Title                                    : 繁体
  105. Language                                 : Chinese
  106. Default                                  : Yes
  107. Forced                                   : No
  108. Text #2
  109. ID                                       : 6
  110. Format                                   : PGS
  111. Muxing mode                              : zlib
  112. Codec ID                                 : S_HDMV/PGS
  113. Codec ID/Info                            : Picture based subtitle format used on BDs/HD-DVDs
  114. Title                                    : 简体
  115. Language                                 : Chinese
  116. Default                                  : No
  117. Forced                                   : No
  118. Text #3
  119. ID                                       : 7
  120. Format                                   : PGS
  121. Muxing mode                              : zlib
  122. Codec ID                                 : S_HDMV/PGS
  123. Codec ID/Info                            : Picture based subtitle format used on BDs/HD-DVDs
  124. Title                                    : 英文
  125. Language                                 : English
  126. Default                                  : No
  127. Forced                                   : No
  128. Menu
  129. 00:00:00.000                             : en:Chapter 01
  130. 00:11:59.500                             : en:Chapter 02
  131. 00:24:04.041                             : en:Chapter 03
  132. 00:31:15.916                             : en:Chapter 04
  133. 00:42:00.291                             : en:Chapter 05
  134. 00:54:24.708                             : en:Chapter 06
  135. 01:04:55.375                             : en:Chapter 07
  136. 01:18:45.875                             : en:Chapter 08
  137. 01:28:45.958                             : en:Chapter 09
  138. 01:39:27.708                             : en:Chapter 10
  139. 01:49:11.291                             : en:Chapter 11
  140. 02:04:50.625                             : en:Chapter 12





此处一般会放置磁力链或种子下载链接,不过此链接需要注册会员才能看到,点击“立即注册”
磁力链下载【下载链接仅对注册会员开放,登陆后可见】
BT9527电影天堂 1、BT9527电影天堂提供的BT文件均来源于互联网抓取,只供网友学习交流、技术提升使用。
2、我们遵守BitTorrent点对点协议原则,任何版权问题请联系原资源发布商,我们不处理任何版权纠纷,谢谢!如有争议请联系邮箱:BT9527#hotmail.com(#换成@)
3、如果您发现某页面或地址有错误,请联系站长邮箱BT9527#hotmail.com(#换成@),我们会尽快处理。您的热心是对BT9527电影天堂最大的支持。
4、本站建议去正规影院观看电影以支持电影行业发展。
最新回复 (0)

你可以在 登录 or 注册 后,对此帖发表评论!

返回
发新帖