出水芙蓉[国粤多音轨/简繁英字幕].The.Fantastic.Water.Babes.2010.BluRay.1080p.x265.10bit.2Audio-MiniHD 5.38GB

版主小s 3月前 264

✔资源类型:暂未分类   ✔电影年份:2010   ✔电影地区:香港   ✔电影分类:喜剧

◎译  名 出水芙蓉 / The Fantastic Water Babes
◎年  代 2010
◎产  地 中国香港 / 中国大陆
◎类  别 喜剧 / 运动
◎语  言 粤语 / 汉语普通话
◎上映日期 2010-07-06
◎IMDb链接 https://www.imdb.com/title/tt1500694/
◎豆瓣评分 5.0/10 (9959人评价)
◎豆瓣链接 https://movie.douban.com/subject/2276989/
◎片  长 89分钟
◎导  演 刘镇伟 Jeffrey Lau (id:1274431)
◎编  剧 刘镇伟 Jeffrey Lau (id:1274431)
◎演  员 钟欣潼 Gillian Chung (id:1005138)
       方力申 Lik-Sun Fong (id:1171687)
       黄圣依 Eva Huang (id:1005110)
       冯德伦 Stephen Fung (id:1023278)
       唐诗咏 Natalie Tong (id:1046958)
       罗强 Chiang Lo (id:1364460)
       钟国雄 Guoxiong Zhong (id:1428109)
       茜利妹 Hyper BB (id:1411581)
       卢琳 Celine Lu (id:1391205)
       马启仁 Keyman Ma (id:1389848)
       雨侨 YuKiu Ava (id:1315568)
       周秀娜 Chrissie Chaw (id:1313563)
       田亮 Liang Tian (id:1274859)
       杨受成 Albert Yeung (id:1313455)
       利雅博 Albert Lee (id:1326683)
       黄英华 Ying-Wah Wong (id:1301204)
       林安儿 Angie Lam (id:1038152)
       曾景祥 Kinson Tsang (id:1299575)
       张笑千 Siu Chin Cheung (id:1370526)

◎简  介
  香港长洲岛是个小地方,人们生于斯长于斯,没有太大抱负也能享受安逸生活。但是偏偏出了个死心眼的“长洲美少女”罗娇(钟欣桐 饰),为了报情敌的一巴掌之仇,决心拉上几个好姐妹参加“出水芙蓉”4x100游泳接力赛夺下冠军。为此她绑架到“飞鱼王子”郭志远(方力申 饰),逼他训练自己和姐妹们:命犯天煞孤星的病秧子阿玉(黄圣依 饰),草食双胞胎“大花”(茜利妹 饰)与“小花”(朱熏 饰)。经过一番刻苦训练,加上阿娇无意中遇到“海上观音”(田亮 饰)赋予她的超能力,阿娇和姐妹们泳技飞涨,郭志远也慢慢对阿娇动了心,只是被她误会喜欢阿玉。比赛终于到来,“海上观音”显灵令阿娇他们获胜,而阿娇和郭志远的爱情却也随着志远被经纪人接走见了分晓……
  1. ##### MediaInfo ######
  2. General
  3. Unique ID                                : 18726624120382126459311229184222828259 (0xE169DDA7C43FD8D147C0066FA6216E3)
  4. Complete name                            : The.Fantastic.Water.Babes.2010.BluRay.1080p.x265.10bit.2Audio-MiniHD.mkv
  5. Format                                   : Matroska
  6. Format version                           : Version 4
  7. File size                                : 5.38 GiB
  8. Duration                                 : 1 h 28 min
  9. Overall bit rate                         : 8 676 kb/s
  10. Encoded date                             : UTC 2018-12-19 13:51:57
  11. Writing application                      : mkvmerge v20.0.0 ('I Am The Sun') 64-bit
  12. Writing library                          : libebml v1.3.5 + libmatroska v1.4.8
  13. Video
  14. ID                                       : 1
  15. Format                                   : HEVC
  16. Format/Info                              : High Efficiency Video Coding
  17. Format profile                           : Main 10@L4@Main
  18. Codec ID                                 : V_MPEGH/ISO/HEVC
  19. Duration                                 : 1 h 28 min
  20. Bit rate                                 : 7 358 kb/s
  21. Width                                    : 1 920 pixels
  22. Height                                   : 816 pixels
  23. Display aspect ratio                     : 2.35:1
  24. Frame rate mode                          : Constant
  25. Frame rate                               : 24.000 FPS
  26. Color space                              : YUV
  27. Chroma subsampling                       : 4:2:0
  28. Bit depth                                : 10 bits
  29. Bits/(Pixel*Frame)                       : 0.196
  30. Stream size                              : 4.56 GiB (85%)
  31. Writing library                          : x265 2.9+4-471726d3a046:[Windows][GCC 8.2.0][64 bit] 10bit
  32. Encoding settings                        : cpuid=533541111039 / frame-threads=4 / numa-pools=16 / wpp / no-pmode / no-pme / no-psnr / no-ssim / log-level=2 / csv / csv-log-level=0 / input-csp=1 / input-res=1920x816 / interlace=0 / total-frames=127810 / level-idc=0 / high-tier=1 / uhd-bd=0 / ref=5 / no-allow-non-conformance / no-repeat-headers / annexb / no-aud / no-hrd / info / hash=0 / no-temporal-layers / no-open-gop / min-keyint=1 / keyint=360 / gop-lookahead=0 / bframes=9 / b-adapt=2 / b-pyramid / bframe-bias=0 / rc-lookahead=60 / lookahead-slices=4 / NTMzNTQ=uuDQuD2mJt9fsCf / scenecut=40 / radl=0 / no-intra-refresh / ctu=32 / min-cu-size=8 / rect / no-amp / max-tu-size=16 / tu-inter-depth=2 / tu-intra-depth=2 / limit-tu=4 / rdoq-level=1 / dynamic-rd=0.00 / ssim-rd / signhide / no-tskip / nr-intra=0 / nr-inter=0 / no-constrained-intra / no-strong-intra-smoothing / max-merge=3 / limit-refs=2 / limit-modes / me=3 / subme=5 / merange=25 / temporal-mvp / weightp / weightb / no-analyze-src-pics / deblock=-1:-1 / no-sao / no-sao-non-deblock / rd=4 / no-early-skip / rskip / no-fast-intra / no-tskip-fast / no-cu-lossless / b-intra / no-splitrd-skip / rdpenalty=1 / psy-rd=0.00 / psy-rdoq=5.00 / no-rd-refine / no-lossless / cbqpoffs=-2 / crqpoffs=-2 / rc=crf / crf=19.0 / qcomp=0.70 / qpstep=4 / stats-write=0 / stats-read=0 / ipratio=1.40 / pbratio=1.30 / aq-mode=1 / aq-strength=0.80 / cutree / zone-count=0 / no-strict-cbr / qg-size=16 / no-rc-grain / qpmax=69 / qpmin=0 / no-const-vbv / sar=0 / overscan=0 / videoformat=5 / range=0 / colorprim=1 / transfer=2 / colormatrix=2 / chromaloc=0 / display-window=0 / max-cll=0,0 / min-luma=0 / max-luma=1023 / log2-max-poc-lsb=8 / vui-timing-info / vui-hrd-info / slices=1 / no-opt-qp-pps / no-opt-ref-list-length-pps / no-multi-pass-opt-rps / scenecut-bias=0.05 / no-opt-cu-delta-qp / no-aq-motion / no-hdr / no-hdr-opt / no-dhdr10-opt / no-idr-recovery-sei / analysis-reuse-level=5 / scale-factor=0 / refine-intra=0 / refine-inter=0 / refine-mv=0 / no-limit-sao / ctu-info=0 / no-lowpass-dct / refine-mv-type=0 / copy-pic=1 / max-ausize-factor=1.0 / no-dynamic-refine / no-single-sei
  33. Language                                 : Chinese
  34. Default                                  : Yes
  35. Forced                                   : No
  36. Color range                              : Limited
  37. Color primaries                          : BT.709
  38. Audio #1
  39. ID                                       : 2
  40. Format                                   : AC-3
  41. Format/Info                              : Audio Coding 3
  42. Commercial name                          : Dolby Digital
  43. Codec ID                                 : A_AC3
  44. Duration                                 : 1 h 28 min
  45. Bit rate mode                            : Constant
  46. Bit rate                                 : 640 kb/s
  47. Channel(s)                               : 6 channels
  48. Channel layout                           : L R C LFE Ls Rs
  49. Sampling rate                            : 48.0 kHz
  50. Frame rate                               : 31.250 FPS (1536 SPF)
  51. Compression mode                         : Lossy
  52. Stream size                              : 406 MiB (7%)
  53. Title                                    : 粤语
  54. Language                                 : Chinese
  55. Service kind                             : Complete Main
  56. Default                                  : Yes
  57. Forced                                   : No
  58. Audio #2
  59. ID                                       : 3
  60. Format                                   : AC-3
  61. Format/Info                              : Audio Coding 3
  62. Commercial name                          : Dolby Digital
  63. Codec ID                                 : A_AC3
  64. Duration                                 : 1 h 28 min
  65. Bit rate mode                            : Constant
  66. Bit rate                                 : 640 kb/s
  67. Channel(s)                               : 6 channels
  68. Channel layout                           : L R C LFE Ls Rs
  69. Sampling rate                            : 48.0 kHz
  70. Frame rate                               : 31.250 FPS (1536 SPF)
  71. Compression mode                         : Lossy
  72. Stream size                              : 406 MiB (7%)
  73. Title                                    : 国语
  74. Language                                 : Chinese
  75. Service kind                             : Complete Main
  76. Default                                  : No
  77. Forced                                   : No
  78. Text #1
  79. ID                                       : 4
  80. Format                                   : PGS
  81. Muxing mode                              : zlib
  82. Codec ID                                 : S_HDMV/PGS
  83. Codec ID/Info                            : Picture based subtitle format used on BDs/HD-DVDs
  84. Duration                                 : 1 h 24 min
  85. Bit rate                                 : 34.3 kb/s
  86. Count of elements                        : 2220
  87. Stream size                              : 20.7 MiB (0%)
  88. Title                                    : 繁体
  89. Language                                 : Chinese
  90. Default                                  : Yes
  91. Forced                                   : No
  92. Text #2
  93. ID                                       : 5
  94. Format                                   : PGS
  95. Muxing mode                              : zlib
  96. Codec ID                                 : S_HDMV/PGS
  97. Codec ID/Info                            : Picture based subtitle format used on BDs/HD-DVDs
  98. Duration                                 : 1 h 24 min
  99. Bit rate                                 : 34.2 kb/s
  100. Count of elements                        : 2220
  101. Stream size                              : 20.7 MiB (0%)
  102. Title                                    : 简体
  103. Language                                 : Chinese
  104. Default                                  : No
  105. Forced                                   : No
  106. Text #3
  107. ID                                       : 6
  108. Format                                   : PGS
  109. Muxing mode                              : zlib
  110. Codec ID                                 : S_HDMV/PGS
  111. Codec ID/Info                            : Picture based subtitle format used on BDs/HD-DVDs
  112. Duration                                 : 1 h 24 min
  113. Bit rate                                 : 37.1 kb/s
  114. Count of elements                        : 2220
  115. Stream size                              : 22.5 MiB (0%)
  116. Title                                    : 英文
  117. Language                                 : English
  118. Default                                  : No
  119. Forced                                   : No
  120. Menu
  121. 00:00:00.000                             : en:Chapter 1
  122. 00:06:09.000                             : en:Chapter 2
  123. 00:15:33.833                             : en:Chapter 3
  124. 00:21:00.375                             : en:Chapter 4
  125. 00:27:37.708                             : en:Chapter 5
  126. 00:34:20.625                             : en:Chapter 6
  127. 00:41:39.708                             : en:Chapter 7
  128. 00:52:54.125                             : en:Chapter 8
  129. 01:00:35.708                             : en:Chapter 9
  130. 01:08:14.458                             : en:Chapter 10
  131. 01:18:04.166                             : en:Chapter 11
  132. 01:24:34.541                             : en:Chapter 12





此处一般会放置磁力链或种子下载链接,不过此链接需要注册会员才能看到,点击“立即注册”
磁力链下载【下载链接仅对注册会员开放,登陆后可见】
BT9527电影天堂 1、BT9527电影天堂提供的BT文件均来源于互联网抓取,只供网友学习交流、技术提升使用。
2、我们遵守BitTorrent点对点协议原则,任何版权问题请联系原资源发布商,我们不处理任何版权纠纷,谢谢!如有争议请联系邮箱:BT9527#hotmail.com(#换成@)
3、如果您发现某页面或地址有错误,请联系站长邮箱BT9527#hotmail.com(#换成@),我们会尽快处理。您的热心是对BT9527电影天堂最大的支持。
4、本站建议去正规影院观看电影以支持电影行业发展。
最新回复 (0)

你可以在 登录 or 注册 后,对此帖发表评论!

返回