冲霄楼[国语音轨/简繁英字幕].House.of.Traps.1982.BluRay.1080p.x265.10bit-MiniHD 3.53GB

版主小s 3月前 155

✔资源类型:暂未分类   ✔电影年份:更 早   ✔电影地区:香港   ✔电影分类:动作

◎译  名 冲霄楼 / House of Traps
◎年  代 1982
◎产  地 中国香港
◎类  别 动作 / 武侠 / 古装
◎语  言 汉语普通话
◎上映日期 1982-01-09(中国香港)
◎IMDb链接 https://www.imdb.com/title/tt0082174/
◎豆瓣评分 6.6/10 (860人评价)
◎豆瓣链接 https://movie.douban.com/subject/2244773/
◎片  长 95分钟
◎导  演 张彻 Cheh Chang (id:1007232)
◎编  剧 张彻 Cheh Chang (id:1007232)
◎演  员 钱小豪 Siu-hou Chin (id:1005415)
       鹿峰 Feng Lu (id:1045851)
       洪新南 Hsin Nan Hung (id:1383214)
       林志泰 Chi Tai Lam (id:1433961)
       姚文基 Man-kei Yiu (id:1435360)
       尹尚林 Hsiang Lin Yin (id:1406340)
       王华 Hua Wang (id:1357379)
       萧玉 Hsiao Yu (id:1413096)
       朱客 Ke Chu (id:1313485)
       江生 Sheng Chiang (id:1003546)
       余太平 Tai-ping Yu (id:1361087)
       王力 Wong Lik (id:1348713)
       冯明 Ming Fung (id:1397224)
       孙建 Chien Sun (id:1008266)
       沈劳 Lao Shen (id:1110008)
       西瓜刨 Gwa-pau Sai (id:1220481)
       艾飞 Ai Fei (id:1356968)
       程天赐 Chien-Chang Chen (id:1332292)
       刘晃世 Huang-Hsi Liu (id:1413056)
       尤离 Yau Lee (id:1413057)
       王憾尘 Han Chen Wang (id:1413061)
       黎友兴 You-Hsing Lai (id:1413062)
       张作舟 Chok Chow Cheung (id:1417191)
       张照 Hsi Chang (id:1389330)
       金天柱 Tien-Chu Chin (id:1417197)
       梁心 Hsin Liang (id:1427057)
       郭追 Philip Kwok (id:1028425)
       方逸华 Mona Fong (id:1283933)
       王居仁 Eddie Wang (id:1340309)
       陈芬 Chan Fen (id:1431417)
       曹惠琪 Hui-Chi Tsao (id:1423758)
       姜兴隆 Hsing-lung Chiang (id:1280639)
       曹庄生 Johnson Tsao (id:1377534)
       吴绪清 Hsu-Ching Wu (id:1354216)
       卢远鸣 Lucas Lowe (id:1410930)
       江生 Sheng Chiang (id:1003546)
       朱客 Ke Chu (id:1313485)
       彭雁联 Yen-Lien Peng (id:1330723)

◎简  介
  本片改編自俠義小說《七俠五義》,人物繁多,情節多變,難得張徹處理得有條不紊,角色性格分明。故事講述襄陽王(艾飛飾)在王府中建造機關密佈之沖霄樓,又廣招花蝴蝶花沖(鹿峰 飾)、神手大聖鄧車(王力 飾)和小諸葛沈仲元(龍天翔飾)等江湖俠士加盟,以謀造反。包公洞悉襄陽王叛跡,乃命門生顏春敏(孫建飾)前往?{查……沖宵樓的機關設計,險象橫生,配合新一代張家班的熟練合作,拍出奇詭精妙的動作效果,耳目一新。                                    
                                1982年张彻大导演的作品《冲霄楼》,乃改编自侠义小说《七侠五义》,情节精彩万分,角色性格分明。其中当年新扎的武打小生钱小豪,获得导演张彻的赏识,在电影中有精彩的演绎。                                    
                                由郭追,钱小豪、鹿峰、王力、龙天翔和孙建主演,片中冲宵楼的机关设计来对付英雄人物险象横生,且拍摄精彩,值得电影迷收藏。
  1. ##### MediaInfo ######
  2. General
  3. Unique ID                                : 280987801296704889641417931621361352051 (0xD36448349778C64D30A6ED77E2A97D73)
  4. Complete name                            : House.of.Traps.1982.BluRay.1080p.x265.10bit-MiniHD.mkv
  5. Format                                   : Matroska
  6. Format version                           : Version 4
  7. File size                                : 3.53 GiB
  8. Duration                                 : 1 h 35 min
  9. Overall bit rate                         : 5 314 kb/s
  10. Encoded date                             : UTC 2018-12-19 12:29:34
  11. Writing application                      : mkvmerge v20.0.0 ('I Am The Sun') 64-bit
  12. Writing library                          : libebml v1.3.5 + libmatroska v1.4.8
  13. Video
  14. ID                                       : 1
  15. Format                                   : HEVC
  16. Format/Info                              : High Efficiency Video Coding
  17. Format profile                           : Main 10@L4@Main
  18. Codec ID                                 : V_MPEGH/ISO/HEVC
  19. Duration                                 : 1 h 35 min
  20. Bit rate                                 : 4 806 kb/s
  21. Width                                    : 1 920 pixels
  22. Height                                   : 812 pixels
  23. Display aspect ratio                     : 2.35:1
  24. Frame rate mode                          : Constant
  25. Frame rate                               : 23.976 (24000/1001/53354) FPS
  26. Color space                              : YUV
  27. Chroma subsampling                       : 4:2:0
  28. Bit depth                                : 10 bits
  29. Bits/(Pixel*Frame)                       : 0.129
  30. Stream size                              : 3.19 GiB (90%)
  31. Writing library                          : x265 2.9+4-471726d3a046:[Windows][GCC 8.2.0][64 bit] 10bit
  32. Encoding settings                        : cpuid=533541111039 / frame-threads=4 / numa-pools=16 / wpp / no-pmode / no-pme / no-psnr / no-ssim / log-level=2 / csv / csv-log-level=0 / input-csp=1 / input-res=1920x812 / interlace=0 / total-frames=136698 / level-idc=0 / high-tier=1 / uhd-bd=0 / ref=5 / no-allow-non-conformance / no-repeat-headers / annexb / no-aud / no-hrd / info / hash=0 / no-temporal-layers / no-open-gop / min-keyint=1 / keyint=360 / gop-lookahead=0 / bframes=9 / b-adapt=2 / b-pyramid / bframe-bias=0 / rc-lookahead=60 / lookahead-slices=4 / NTMzNTQ=uuDQuD2mJt9fsCf / scenecut=40 / radl=0 / no-intra-refresh / ctu=32 / min-cu-size=8 / rect / no-amp / max-tu-size=16 / tu-inter-depth=2 / tu-intra-depth=2 / limit-tu=4 / rdoq-level=1 / dynamic-rd=0.00 / ssim-rd / signhide / no-tskip / nr-intra=0 / nr-inter=0 / no-constrained-intra / no-strong-intra-smoothing / max-merge=3 / limit-refs=2 / limit-modes / me=3 / subme=5 / merange=25 / temporal-mvp / weightp / weightb / no-analyze-src-pics / deblock=-1:-1 / no-sao / no-sao-non-deblock / rd=4 / no-early-skip / rskip / no-fast-intra / no-tskip-fast / no-cu-lossless / b-intra / no-splitrd-skip / rdpenalty=1 / psy-rd=0.00 / psy-rdoq=5.00 / no-rd-refine / no-lossless / cbqpoffs=-2 / crqpoffs=-2 / rc=crf / crf=16.0 / qcomp=0.70 / qpstep=4 / stats-write=0 / stats-read=0 / ipratio=1.40 / pbratio=1.30 / aq-mode=1 / aq-strength=0.80 / cutree / zone-count=0 / no-strict-cbr / qg-size=16 / no-rc-grain / qpmax=69 / qpmin=0 / no-const-vbv / sar=0 / overscan=0 / videoformat=5 / range=0 / colorprim=1 / transfer=2 / colormatrix=2 / chromaloc=0 / display-window=0 / max-cll=0,0 / min-luma=0 / max-luma=1023 / log2-max-poc-lsb=8 / vui-timing-info / vui-hrd-info / slices=1 / no-opt-qp-pps / no-opt-ref-list-length-pps / no-multi-pass-opt-rps / scenecut-bias=0.05 / no-opt-cu-delta-qp / no-aq-motion / no-hdr / no-hdr-opt / no-dhdr10-opt / no-idr-recovery-sei / analysis-reuse-level=5 / scale-factor=0 / refine-intra=0 / refine-inter=0 / refine-mv=0 / no-limit-sao / ctu-info=0 / no-lowpass-dct / refine-mv-type=0 / copy-pic=1 / max-ausize-factor=1.0 / no-dynamic-refine / no-single-sei
  33. Language                                 : Chinese
  34. Default                                  : Yes
  35. Forced                                   : No
  36. Color range                              : Limited
  37. Color primaries                          : BT.709
  38. Audio
  39. ID                                       : 2
  40. Format                                   : AC-3
  41. Format/Info                              : Audio Coding 3
  42. Commercial name                          : Dolby Digital
  43. Codec ID                                 : A_AC3
  44. Duration                                 : 1 h 35 min
  45. Bit rate mode                            : Constant
  46. Bit rate                                 : 448 kb/s
  47. Channel(s)                               : 2 channels
  48. Channel layout                           : L R
  49. Sampling rate                            : 48.0 kHz
  50. Frame rate                               : 31.250 FPS (1536 SPF)
  51. Compression mode                         : Lossy
  52. Stream size                              : 304 MiB (8%)
  53. Title                                    : 国语
  54. Language                                 : Chinese
  55. Service kind                             : Complete Main
  56. Default                                  : Yes
  57. Forced                                   : No
  58. Text #1
  59. ID                                       : 3
  60. Format                                   : PGS
  61. Muxing mode                              : zlib
  62. Codec ID                                 : S_HDMV/PGS
  63. Codec ID/Info                            : Picture based subtitle format used on BDs/HD-DVDs
  64. Duration                                 : 1 h 34 min
  65. Bit rate                                 : 37.5 kb/s
  66. Count of elements                        : 2280
  67. Stream size                              : 25.3 MiB (1%)
  68. Title                                    : 简体
  69. Language                                 : Chinese
  70. Default                                  : No
  71. Forced                                   : No
  72. Text #2
  73. ID                                       : 4
  74. Format                                   : PGS
  75. Muxing mode                              : zlib
  76. Codec ID                                 : S_HDMV/PGS
  77. Codec ID/Info                            : Picture based subtitle format used on BDs/HD-DVDs
  78. Duration                                 : 1 h 34 min
  79. Bit rate                                 : 38.5 kb/s
  80. Count of elements                        : 2280
  81. Stream size                              : 25.9 MiB (1%)
  82. Title                                    : 繁体
  83. Language                                 : Chinese
  84. Default                                  : Yes
  85. Forced                                   : No
  86. Text #3
  87. ID                                       : 5
  88. Format                                   : PGS
  89. Muxing mode                              : zlib
  90. Codec ID                                 : S_HDMV/PGS
  91. Codec ID/Info                            : Picture based subtitle format used on BDs/HD-DVDs
  92. Duration                                 : 1 h 34 min
  93. Bit rate                                 : 46.1 kb/s
  94. Count of elements                        : 2132
  95. Stream size                              : 31.1 MiB (1%)
  96. Title                                    : 英文
  97. Language                                 : English
  98. Default                                  : No
  99. Forced                                   : No
  100. Menu
  101. 00:00:00.000                             : en:Chapter 1





此处一般会放置磁力链或种子下载链接,不过此链接需要注册会员才能看到,点击“立即注册”
磁力链下载【下载链接仅对注册会员开放,登陆后可见】
BT9527电影天堂 1、BT9527电影天堂提供的BT文件均来源于互联网抓取,只供网友学习交流、技术提升使用。
2、我们遵守BitTorrent点对点协议原则,任何版权问题请联系原资源发布商,我们不处理任何版权纠纷,谢谢!如有争议请联系邮箱:BT9527#hotmail.com(#换成@)
3、如果您发现某页面或地址有错误,请联系站长邮箱BT9527#hotmail.com(#换成@),我们会尽快处理。您的热心是对BT9527电影天堂最大的支持。
4、本站建议去正规影院观看电影以支持电影行业发展。
最新回复 (0)

你可以在 登录 or 注册 后,对此帖发表评论!

返回