黑狐之绝地营救[国语配音/中文字幕].Black.Fox.Ultimate.Rescue.2022.2160p.WEB-DL.H265.AAC-HDBWEB 2.19GB

版主小s 13天前 33

✔资源类型:4K   ✔电影年份:2022   ✔电影地区:大陆   ✔电影分类:剧情

◎译  名 黑狐之绝地营救
◎年  代 2022
◎产  地 中国大陆
◎语  言 汉语普通话
◎IMDb链接 https://www.imdb.com/title//
◎豆瓣链接 https://movie.douban.com/subject/35290639/
◎导  演 王利兴 Lixing Wang (id:1341350)
◎演  员 吴承轩 Chengxuan Wu (id:1336970)
       胡洪宇 Hongyu Hu (id:1413754)
       冯越 Yue Feng (id:1438892)

◎简  介
  该片讲述了王文渊与夏凡带领黑狐突击队,在明知国军马龙川营救失败后,不惧日本军队重重防守,以身犯险,营救苏联军事专家罗飞。作为一部抗战军事动作影片,《黑狐之绝地营救》不仅有大开大合的战争场面,也融入了跑酷、飙车等许多现代时尚的动作场面,将会呈现一场精彩绝伦的视觉盛宴。
  1. ##### MediaInfo ######
  2. General
  3. Complete name                            : 黑狐之绝地营救.Black.Fox.Ultimate.Rescue.2022.2160p.WEB-DL.H265.AAC-HDBWEB.mp4
  4. Format                                   : MPEG-4
  5. Format profile                           : Base Media
  6. Codec ID                                 : isom (isom/iso2/mp41)
  7. File size                                : 2.19 GiB
  8. Duration                                 : 1 h 23 min
  9. Overall bit rate mode                    : Variable
  10. Overall bit rate                         : 3 770 kb/s
  11. Writing application                      : OurTV Media Encoder
  12. Video
  13. ID                                       : 1
  14. Format                                   : HEVC
  15. Format/Info                              : High Efficiency Video Coding
  16. Format profile                           : Main@L5.1@Main
  17. Codec ID                                 : hev1
  18. Codec ID/Info                            : High Efficiency Video Coding
  19. Duration                                 : 1 h 23 min
  20. Bit rate                                 : 3 566 kb/s
  21. Width                                    : 3 840 pixels
  22. Height                                   : 1 440 pixels
  23. Display aspect ratio                     : 2.667
  24. Frame rate mode                          : Constant
  25. Frame rate                               : 60.000 FPS
  26. Color space                              : YUV
  27. Chroma subsampling                       : 4:2:0
  28. Bit depth                                : 8 bits
  29. Bits/(Pixel*Frame)                       : 0.011
  30. Stream size                              : 2.07 GiB (95%)
  31. Color range                              : Limited
  32. Color primaries                          : BT.709
  33. Transfer characteristics                 : BT.709
  34. Matrix coefficients                      : BT.709
  35. Codec configuration box                  : hvcC
  36. Audio
  37. ID                                       : 2
  38. Format                                   : AAC LC
  39. Format/Info                              : Advanced Audio Codec Low Complexity
  40. Codec ID                                 : mp4a-40-2
  41. Duration                                 : 1 h 23 min
  42. Bit rate mode                            : Variable
  43. Bit rate                                 : 192 kb/s
  44. Channel(s)                               : 2 channels
  45. Channel layout                           : L R
  46. Sampling rate                            : 44.1 kHz
  47. Frame rate                               : 43.066 FPS (1024 SPF)
  48. Compression mode                         : Lossy
  49. Stream size                              : 113 MiB (5%)
  50. Default                                  : Yes
  51. Alternate group                          : 1





此处一般会放置磁力链或种子下载链接,不过此链接需要注册会员才能看到,点击“立即注册”
磁力链下载【下载链接仅对注册会员开放,登陆后可见】
BT9527电影天堂 1、BT9527电影天堂提供的BT文件均来源于互联网抓取,只供网友学习交流、技术提升使用。
2、我们遵守BitTorrent点对点协议原则,任何版权问题请联系原资源发布商,我们不处理任何版权纠纷,谢谢!如有争议请联系邮箱:BT9527#hotmail.com(#换成@)
3、如果您发现某页面或地址有错误,请联系站长邮箱BT9527#hotmail.com(#换成@),我们会尽快处理。您的热心是对BT9527电影天堂最大的支持。
4、本站建议去正规影院观看电影以支持电影行业发展。
最新回复 (0)

你可以在 登录 or 注册 后,对此帖发表评论!

返回
发新帖