我和我的父辈[国语音轨/简繁英字幕].My.Country.My.Parents.2021.BluRay.1080p.TrueHD.5.1.x265.10bit-ALT 10.15GB

版主小s 3月前 147

✔资源类型:暂未分类   ✔电影年份:2021   ✔电影地区:大陆   ✔电影分类:剧情

◎译  名 我和我的父辈 / My Country, My Parents
◎年  代 2021
◎产  地 中国大陆
◎类  别 剧情
◎语  言 汉语普通话
◎上映日期 2021-09-30(中国大陆)
◎IMDb链接 https://www.imdb.com/title/tt15465312/
◎豆瓣评分 6.5/10 (233017人评价)
◎豆瓣链接 https://movie.douban.com/subject/35294995/
◎片  长 156分钟
◎导  演 吴京 Jing Wu (id:1000525)
       章子怡 Ziyi Zhang (id:1041014)
       徐峥 Zheng Xu (id:1274297)
       沈腾 Teng Shen (id:1325700)
◎编  剧 俞白眉 Baimei Yu (id:1316617)
       张彦 Yan Zhang (id:1374426)
       李媛 Yuan Li (id:1359882)
       何可可 Keke He (id:1339571)
       徐峥 Zheng Xu (id:1274297)
       华玮琳 Weilin Hua (id:1462210)
       林炳宝 Bingbao Lin (id:1345373)
◎演  员 吴京 Jing Wu (id:1000525)
       章子怡 Ziyi Zhang (id:1041014)
       徐峥 Zheng Xu (id:1274297)
       沈腾 Teng Shen (id:1325700)
       吴磊 Leo Wu (id:1276150)
       黄轩 Xuan Huang (id:1276105)
       袁近辉 Jinhui Yuan (id:1386644)
       任思诺  (id:1461313)
       韩昊霖 Haolin Han (id:1396506)
       宋佳 Jia Song (id:1042341)
       马丽 Li Ma (id:1319032)
       洪烈 Lie Hong (id:1461702)
       张天爱 Tian'ai Zhang (id:1353578)
       李光洁 Guangjie Li (id:1275178)
       海清 Qing Hai (id:1272245)
       陈道明 Daoming Chen (id:1045565)
       彭昱畅 Yuchang Peng (id:1354775)
       欧豪 Oho Ou (id:1337644)
       贾冰 Bing Jia (id:1367925)
       辣目洋子 Jackie Li (id:1381644)
       艾伦 Allen (id:1350408)
       常远 Yuan Chang (id:1327084)
       余皑磊 Ailei Yu (id:1313809)
       魏晨 Vision Wei (id:1035594)
       陶虹 Hong Tao (id:1015199)
       倪虹洁 Hongjie Ni (id:1274649)
       张雨绮 Yuqi Zhang (id:1274494)
       焦圣祥 Shengxiang Jiao (id:1460827)
       樊雨洁 Yujie Fan (id:1420308)
       张建亚 Jianya Zhang (id:1276057)
       张芝华 Zhihua Zhang (id:1315113)
       张国强 Guoqiang Zhang (id:1274258)
       宁理 Li Ning (id:1327193)
       胡可 Ke Hu (id:1274939)
       沙溢 Yi Sha (id:1274648)
       马书良 Shuliang Ma (id:1313512)
       曹可凡 Kefan Cao (id:1314007)
       万茜 Qian Wan (id:1315477)
       祖峰 Feng Zu (id:1313650)
       张艺谋 Yimou Zhang (id:1054398)
       李雪健 Xuejian Li (id:1274233)
       张小斐 Xiaofei Zhang (id:1351014)
       杜江 Jiang Du (id:1322949)
       李乃文 Naiwen Li (id:1274530)
       耿乐 Le Geng (id:1274576)
       吴昊宸 Haochen Wu (id:1357212)
       白那日苏 Narisu Bai (id:1390544)
       江水 Shui Jiang (id:1316372)
       逯长恩 Chang'en Lu (id:1325615)
       张恒瑞 Hengrui Zhang (id:1411489)
       阿楠 A  Nan (id:1383483)
       吴昱翰 Yuhan Wu (id:1313050)
       周庆昀 Qingyun Zhou (id:1461704)
       王成思 Chengsi Wang (id:1383525)
       宋阳 Yang Song (id:1350407)
       李海银 Haiyin Li (id:1407469)
       龚毅星 Yixing Gong (id:1451970)
       张云淏 Yunhao Zhang (id:1460987)
       史济源 Jiyuan Shi (id:1461887)
       朱倬 Zhuo Zhu (id:1467942)
       黎艾蒙 Aimeng Li (id:1472872)
       黄麒麟儿 Qiliner Huang (id:1459021)
       焦宏奋 Hongfen Jiao (id:1412277)
       傅若清 Ruoqing Fu (id:1417588)
       黄建新 Jianxin Huang (id:1019896)
       向和 He Xiang  (id:1462202)
       刘开珞 Kailuo Liu (id:1446138)
       梁颖 Ying Liang (id:1422367)
       田甜 Tian Tian (id:1384306)
       刘瑞芳 Ruifang Liu (id:1396881)
       马驰 Chi Ma (id:1398260)
       邓萌 Meng Deng (id:1460231)
       陶鹃瑜 Juanyu Tao (id:1446115)
       章慧霞 Huixia Zhang (id:1446116)
       许建海 Jianhai Xu (id:1384186)
       张博 Bo Zhang (id:1450637)
       孟钧 Jun Meng (id:1403837)
       王中磊 Zhonglei Wang (id:1276037)
       彭鸣宇 Mingyu Peng (id:1446113)
       李昕 Xin Li (id:1453817)
       蒋德富 Defu Jiang (id:1423660)
       李宁 Ning Li (id:1453841)
       陈妍兵  (id:1462203)
       吴京 Jing Wu (id:1000525)
       于飞 Fei Yu (id:1445404)
       张镒麟 Yilin Zhang (id:1402439)
       陈卫骏  (id:1462204)
       彭飞 Fei Peng (id:1404313)
       王菲 Faye Wong (id:1004858)
       雷佳 Jia Lei (id:1355986)
       黎耀辉 Yiu-Fai Lai (id:1289265)
       余静萍 Ching Ping Yu (id:1363692)
       曹郁 Yu Cao (id:1304904)
       孙明 Ming Sun (id:1305119)
       张嘉辉 Ka-fai Cheung (id:1280620)
       李点石 Dianshi Li (id:1365736)
       周肖林 Xiaolin Zhou (id:1365738)
       檀向媛 Xiang-Yuan Tan (id:1365740)
       霍廷霄 Tingxiao Huo (id:1287179)
       林潮翔 Chaoxiang Lin (id:1290063)
       梁鸿鹄 Honghu Liang (id:1410275)
       李健威 Kin-wai Lee (id:1326655)
       杨丹 Dan Yang (id:1419354)
       刘晓莉 Xiaoli Liu (id:1382701)
       雷舒羽  (id:1462205)
       吴里璐 Dora Ng (id:1289270)
       王丹戎 Danrong Wang (id:1276106)
       赵楠 Nan Zhao (id:1325307)
       姚骐  (id:1462206)
       黄云峰  (id:1462207)
       武世杰 Shijie Wu (id:1446410)
       李赓  (id:1462208)
       袁和平 Woo-ping Yuen (id:1275026)
       罗礼贤 Bruce Law (id:1289542)

◎简  介
  继2019年《我和我的祖国》、2020年《我和我的家乡》,国庆三部曲之《我和我的父辈》接棒定档2021年国庆。由吴京、章子怡、徐峥、沈腾导演,“中国电影追梦人”再次集结,以革命、建设、改革开放和新时代为历史坐标, 通过“家与国”的视角描写几代父辈的奋斗经历,讲述中国人的血脉相连和精神传承,再现中国人努力拼搏的时代记忆。
  1. ##### MediaInfo ######
  2. General
  3. Unique ID                                : 180397686357299826022095575714278272142 (0x87B754A28DB43BD9FA05AF6FD88DEC8E)
  4. Complete name                            : My.Country.My.Parents.2021.BluRay.1080p.TrueHD.5.1.x265.10bit-ALT.mkv
  5. Format                                   : Matroska
  6. Format version                           : Version 4
  7. File size                                : 10.1 GiB
  8. Duration                                 : 2 h 38 min
  9. Overall bit rate mode                    : Variable
  10. Overall bit rate                         : 9 192 kb/s
  11. Encoded date                             : UTC 2022-06-20 06:19:45
  12. Writing application                      : mkvmerge v49.0.0 ('Sick Of Losing Soulmates') 64-bit
  13. Writing library                          : libebml v1.4.0 + libmatroska v1.6.1
  14. Video
  15. ID                                       : 1
  16. Format                                   : HEVC
  17. Format/Info                              : High Efficiency Video Coding
  18. Format profile                           : Main 10@L5.1@High
  19. Codec ID                                 : V_MPEGH/ISO/HEVC
  20. Duration                                 : 2 h 38 min
  21. Bit rate                                 : 5 606 kb/s
  22. Width                                    : 1 920 pixels
  23. Height                                   : 804 pixels
  24. Display aspect ratio                     : 2.40:1
  25. Frame rate mode                          : Constant
  26. Frame rate                               : 24.000 FPS
  27. Color space                              : YUV
  28. Chroma subsampling                       : 4:2:0
  29. Bit depth                                : 10 bits
  30. Bits/(Pixel*Frame)                       : 0.151
  31. Stream size                              : 6.19 GiB (61%)
  32. Title                                    : HEVC, x265Main10@L5.1@High, 24 fps @ 5605 kbps
  33. Writing library                          : x265 3.5+36-1f2c8da77:[Windows][GCC 11.2.0][64 bit] 10bit
  34. Encoding settings                        : cpuid=533541111039 / frame-threads=4 / numa-pools=16 / wpp / no-pmode / no-pme / no-psnr / no-ssim / log-level=2 / input-csp=1 / input-res=1920x804 / interlace=0 / total-frames=227566 / level-idc=51 / high-tier=1 / uhd-bd=0 / ref=5 / no-allow-non-conformance / no-repeat-headers / annexb / no-aud / no-eob / no-eos / no-hrd / info / hash=0 / no-temporal-layers / open-gop / min-keyint=24 / keyint=240 / gop-lookahead=0 / bframes=6 / b-adapt=2 / b-pyramid / bframe-bias=0 / rc-lookahead=40 / lookahead-slices=0 / NTMzNTQ=uuDQuD2mJt9fsCf / scenecut=40 / no-hist-scenecut / radl=0 / no-splice / no-intra-refresh / ctu=32 / min-cu-size=8 / no-rect / no-amp / max-tu-size=32 / tu-inter-depth=3 / tu-intra-depth=3 / limit-tu=4 / rdoq-level=2 / dynamic-rd=0.00 / no-ssim-rd / signhide / no-tskip / nr-intra=0 / nr-inter=0 / no-constrained-intra / no-strong-intra-smoothing / max-merge=4 / limit-refs=1 / limit-modes / me=3 / subme=4 / merange=25 / temporal-mvp / no-frame-dup / no-hme / weightp / weightb / no-analyze-src-pics / deblock=-3:-3 / no-sao / no-sao-non-deblock / rd=6 / selective-sao=0 / no-early-skip / rskip / no-fast-intra / no-tskip-fast / no-cu-lossless / b-intra / no-splitrd-skip / rdpenalty=0 / psy-rd=2.00 / psy-rdoq=1.00 / no-rd-refine / no-lossless / cbqpoffs=-2 / crqpoffs=-2 / rc=crf / crf=17.0 / qcomp=0.65 / qpstep=4 / stats-write=0 / stats-read=0 / vbv-maxrate=80000 / vbv-bufsize=80000 / vbv-init=0.9 / min-vbv-fullness=50.0 / max-vbv-fullness=80.0 / crf-max=0.0 / crf-min=0.0 / ipratio=1.40 / pbratio=1.30 / aq-mode=2 / aq-strength=0.85 / cutree / zone-count=0 / no-strict-cbr / qg-size=32 / no-rc-grain / qpmax=69 / qpmin=0 / no-const-vbv / sar=1 / overscan=0 / videoformat=5 / range=0 / colorprim=1 / transfer=1 / colormatrix=1 / chromaloc=0 / display-window=0 / cll=0,0 / min-luma=0 / max-luma=1023 / log2-max-poc-lsb=8 / vui-timing-info / vui-hrd-info / slices=1 / no-opt-qp-pps / no-opt-ref-list-length-pps / no-multi-pass-opt-rps / scenecut-bias=0.05 / hist-threshold=0.03 / no-opt-cu-delta-qp / no-aq-motion / no-hdr10 / no-hdr10-opt / no-dhdr10-opt / no-idr-recovery-sei / analysis-reuse-level=0 / analysis-save-reuse-level=0 / analysis-load-reuse-level=0 / scale-factor=0 / refine-intra=0 / refine-inter=0 / refine-mv=1 / refine-ctu-distortion=0 / no-limit-sao / ctu-info=0 / no-lowpass-dct / refine-analysis-type=0 / copy-pic=1 / max-ausize-factor=1.0 / no-dynamic-refine / no-single-sei / no-hevc-aq / no-svt / no-field / qp-adaptation-range=1.00 / scenecut-aware-qp=0conformance-window-offsets / right=0 / bottom=0 / NTMzNTQ= / decoder-max-rate=0 / no-vbv-live-multi-pass
  35. Language                                 : English
  36. Default                                  : Yes
  37. Forced                                   : No
  38. Color range                              : Limited
  39. Color primaries                          : BT.709
  40. Transfer characteristics                 : BT.709
  41. Matrix coefficients                      : BT.709
  42. Audio #1
  43. ID                                       : 2
  44. Format                                   : MLP FBA
  45. Format/Info                              : Meridian Lossless Packing FBA
  46. Commercial name                          : Dolby TrueHD
  47. Codec ID                                 : A_TRUEHD
  48. Duration                                 : 2 h 38 min
  49. Bit rate mode                            : Variable
  50. Bit rate                                 : 2 792 kb/s
  51. Maximum bit rate                         : 4 368 kb/s
  52. Channel(s)                               : 6 channels
  53. Channel layout                           : L R C LFE Ls Rs
  54. Sampling rate                            : 96.0 kHz
  55. Frame rate                               : 1 200.000 FPS (80 SPF)
  56. Compression mode                         : Lossless
  57. Stream size                              : 3.08 GiB (30%)
  58. Title                                    : Mandarin Dolby TrueHD 5.1 @ 3432 kbps
  59. Language                                 : Chinese
  60. Default                                  : Yes
  61. Forced                                   : No
  62. Audio #2
  63. ID                                       : 3
  64. Format                                   : AC-3
  65. Format/Info                              : Audio Coding 3
  66. Commercial name                          : Dolby Digital
  67. Codec ID                                 : A_AC3
  68. Duration                                 : 2 h 38 min
  69. Bit rate mode                            : Constant
  70. Bit rate                                 : 640 kb/s
  71. Channel(s)                               : 6 channels
  72. Channel layout                           : L R C LFE Ls Rs
  73. Sampling rate                            : 48.0 kHz
  74. Frame rate                               : 31.250 FPS (1536 SPF)
  75. Compression mode                         : Lossy
  76. Stream size                              : 723 MiB (7%)
  77. Title                                    : Mandarin Dolby Digital Audio 5.1 @ 640 kbps
  78. Language                                 : Chinese
  79. Service kind                             : Complete Main
  80. Default                                  : No
  81. Forced                                   : No
  82. Text #1
  83. ID                                       : 4
  84. Format                                   : PGS
  85. Codec ID                                 : S_HDMV/PGS
  86. Codec ID/Info                            : Picture based subtitle format used on BDs/HD-DVDs
  87. Duration                                 : 2 h 32 min
  88. Bit rate                                 : 27.8 kb/s
  89. Count of elements                        : 3421
  90. Stream size                              : 30.3 MiB (0%)
  91. Title                                    : Cht/SUP  原盘繁体
  92. Language                                 : Chinese
  93. Default                                  : No
  94. Forced                                   : No
  95. Text #2
  96. ID                                       : 5
  97. Format                                   : PGS
  98. Codec ID                                 : S_HDMV/PGS
  99. Codec ID/Info                            : Picture based subtitle format used on BDs/HD-DVDs
  100. Duration                                 : 2 h 32 min
  101. Bit rate                                 : 25.8 kb/s
  102. Count of elements                        : 3421
  103. Stream size                              : 28.1 MiB (0%)
  104. Title                                    : Chs/SUP  原盘简体
  105. Language                                 : Chinese
  106. Default                                  : Yes
  107. Forced                                   : No
  108. Text #3
  109. ID                                       : 6
  110. Format                                   : PGS
  111. Codec ID                                 : S_HDMV/PGS
  112. Codec ID/Info                            : Picture based subtitle format used on BDs/HD-DVDs
  113. Duration                                 : 2 h 32 min
  114. Bit rate                                 : 33.8 kb/s
  115. Count of elements                        : 3434
  116. Stream size                              : 36.9 MiB (0%)
  117. Title                                    : Eng/SUP
  118. Language                                 : English
  119. Default                                  : No
  120. Forced                                   : No
  121. Menu
  122. 00:00:00.000                             : en:第 01 章
  123. 00:11:14.750                             : en:第 02 章
  124. 00:24:31.042                             : en:第 03 章
  125. 00:40:11.708                             : en:第 04 章
  126. 00:48:40.375                             : en:第 05 章
  127. 01:01:04.208                             : en:第 06 章
  128. 01:16:09.500                             : en:第 07 章
  129. 01:31:46.583                             : en:第 08 章
  130. 01:45:48.833                             : en:第 09 章
  131. 01:52:42.083                             : en:第 10 章
  132. 02:09:00.750                             : en:第 11 章
  133. 02:26:28.750                             : en:第 12 章





此处一般会放置磁力链或种子下载链接,不过此链接需要注册会员才能看到,点击“立即注册”
磁力链下载【下载链接仅对注册会员开放,登陆后可见】
BT9527电影天堂 1、BT9527电影天堂提供的BT文件均来源于互联网抓取,只供网友学习交流、技术提升使用。
2、我们遵守BitTorrent点对点协议原则,任何版权问题请联系原资源发布商,我们不处理任何版权纠纷,谢谢!如有争议请联系邮箱:BT9527#hotmail.com(#换成@)
3、如果您发现某页面或地址有错误,请联系站长邮箱BT9527#hotmail.com(#换成@),我们会尽快处理。您的热心是对BT9527电影天堂最大的支持。
4、本站建议去正规影院观看电影以支持电影行业发展。
最新回复 (0)

你可以在 登录 or 注册 后,对此帖发表评论!

返回
发新帖