南京!南京![国粤多音轨/简繁英字幕].City.of.Life.and.Death.2009.BluRay.1080p.x265.10bit.2Audio-MiniHD 5.88GB

版主小s 3月前 179

✔资源类型:暂未分类   ✔电影年份:2009   ✔电影地区:大陆   ✔电影分类:剧情

◎译  名 南京!南京! / City of Life and Death / Nanking Nanking
◎年  代 2009
◎产  地 中国大陆 / 中国香港
◎类  别 剧情 / 历史 / 战争
◎语  言 汉语普通话 / 日语 / 英语 / 德语
◎上映日期 2009-04-22(中国大陆)
◎IMDb链接 https://www.imdb.com/title/tt1124052/
◎豆瓣评分 7.5/10 (170147人评价)
◎豆瓣链接 https://movie.douban.com/subject/2294568/
◎片  长 132 分钟
◎导  演 陆川 Chuan Lu (id:1005319)
◎编  剧 陆川 Chuan Lu (id:1005319)
◎演  员 刘烨 Ye Liu (id:1000572)
       高圆圆 Yuanyuan Gao (id:1018980)
       中泉英雄 Hideo Nakaizumi (id:1313655)
       范伟 Wei Fan (id:1051526)
       裴中中 John Paisley (id:1359321)
       江一燕 Yiyan Jiang (id:1274286)
       木幡龙 Ryu Kohata (id:1313726)
       秦岚 Lan Qin (id:1274294)
       姚笛 Di Yao (id:1313774)
       Beverly Peckous Beverly Peckous (id:1359322)
       刘斌 Bin Liu (id:1359320)
       宫本裕子 Yuko Miyamoto (id:1313727)
       大冢匡将 Masanobu Otsuka (id:1317377)
       耿长军 Asano Nagahide (id:1314015)
       石凉 Liang Shi (id:1313009)
       梶冈润一 Junichi Kajioka (id:1233386)
       司马优 Sam Voutas (id:1307672)
       梅莉那 Lina Mei (id:1320510)
       王嘉卉  (id:1430163)
       陆川 Chuan Lu (id:1005319)
       杜扬 Du Yang (id:1330983)
       覃宏 Hong Qin (id:1275502)
       韩三平 Sanping Han (id:1274843)
       Andy Zhang Andy Zhang (id:1312473)
       Li Zhou Li Zhou (id:1312472)
       何丽嫦 Lorraine Ho (id:1418364)
       庄澄 John Chong (id:1280710)
       刘彤 Tong Liu (id:1312429)
       曹郁 Yu Cao (id:1304904)
       郝艺 Yi Hao (id:1316581)
       齐一现 Yixian Qi (id:1318841)
       吴京京 Jingjing Wu (id:1351380)
       马永安 Don Ma (id:1312445)

◎简  介
  1937年12月13日,时为国民政府首都的南京城沦陷,部分官员弃城逃亡,但仍有许多官兵留守,誓死保卫这个大厦将倾的城池。                                       
                                    宋锡濂部军官陆剑雄(刘烨 饰)协同战友与日军展开了激烈的巷战,他们微弱而顽强的抵抗最终被压制,数以万计的中国军民成为俘虏,在枪炮声中血染长江;金陵女子学院安全区,女教师姜淑云(高圆圆 饰)奔波往复,尽力帮助和拯救所有来此避难的同胞,但兽性大发的日军早已虎视眈眈盯上了藏身于此的妇女;拉贝的秘书唐先生(范伟 饰)小心应付,委曲求全,为了保护家人而做出错误的选择,他也为此付出代价;舞女小江(江一燕 饰)纵使逃亡避难也不愿抛却女性的柔媚,她在关键时刻的选择则在其女性的外壳下注入一份刚强;日本人角川(中泉英雄 饰)随部队进驻这个千疮百孔、破败不堪的城池,在这个人间炼狱,他的心灵感受到前所未有的巨大冲击。                                       
                                    狼烟滚滚,血流成河,大时代的背景下,...

◎获奖情况 (共12项)
  第46届台北金马影展 (2009)
  金马奖 最佳摄影
   └──曹郁 (id:1304904)
  金马奖 最佳视觉效果(提名)
   └──马永安 (id:1312445)

  第29届香港电影金像奖 (2010)
  最佳亚洲电影(提名)

  第57届圣塞巴斯蒂安国际电影节 (2009)
  金贝壳奖
   └──陆川 (id:1005319)
  最佳摄影
   └──曹郁 (id:1304904)

  第4届亚洲电影大奖 (2010)
  最佳电影(提名)
  最佳导演
   └──陆川 (id:1005319)
  最佳摄影
   └──曹郁 (id:1304904)
  最佳原创音乐(提名)
   └──刘彤 (id:1312429)

  第10届华语电影传媒大奖 (2010)
  最佳女配角(提名)
   └──江一燕 (id:1274286)

  第1届金扫帚奖 (2009)
  最令人失望影片
  最令人失望导演
   └──陆川 (id:1005319)

  1. ##### MediaInfo ######
  2. General
  3. Unique ID                                : 32460519780671117476754318496715064996 (0x186BAB304A3D34DD7BBBAC72B84546A4)
  4. Complete name                            : City.of.Life.and.Death.2009.BluRay.1080p.x265.10bit.2Audio-MiniHD.mkv
  5. Format                                   : Matroska
  6. Format version                           : Version 4
  7. File size                                : 5.87 GiB
  8. Duration                                 : 2 h 15 min
  9. Overall bit rate                         : 6 220 kb/s
  10. Encoded date                             : UTC 2018-11-09 07:12:21
  11. Writing application                      : mkvmerge v20.0.0 ('I Am The Sun') 64-bit
  12. Writing library                          : libebml v1.3.5 + libmatroska v1.4.8
  13. Video
  14. ID                                       : 1
  15. Format                                   : HEVC
  16. Format/Info                              : High Efficiency Video Coding
  17. Format profile                           : Main 10@L4@Main
  18. Codec ID                                 : V_MPEGH/ISO/HEVC
  19. Duration                                 : 2 h 15 min
  20. Bit rate                                 : 4 816 kb/s
  21. Width                                    : 1 920 pixels
  22. Height                                   : 872 pixels
  23. Display aspect ratio                     : 2.2:1
  24. Frame rate mode                          : Constant
  25. Frame rate                               : 24.000 FPS
  26. Color space                              : YUV
  27. Chroma subsampling                       : 4:2:0
  28. Bit depth                                : 10 bits
  29. Bits/(Pixel*Frame)                       : 0.120
  30. Stream size                              : 4.55 GiB (77%)
  31. Writing library                          : x265 2.8+1-478bfe2b7673:[Windows][GCC 7.3.0][64 bit] 10bit
  32. Encoding settings                        : cpuid=533541111039 / frame-threads=4 / numa-pools=16 / wpp / no-pmode / no-pme / no-psnr / no-ssim / log-level=2 / csv / csv-log-level=0 / input-csp=1 / input-res=1920x872 / interlace=0 / total-frames=194713 / level-idc=0 / high-tier=1 / uhd-bd=0 / ref=5 / no-allow-non-conformance / no-repeat-headers / annexb / no-aud / no-hrd / info / hash=0 / no-temporal-layers / no-open-gop / min-keyint=1 / keyint=360 / gop-lookahead=0 / bframes=9 / b-adapt=2 / b-pyramid / bframe-bias=0 / rc-lookahead=60 / lookahead-slices=4 / NTMzNTQ=uuDQuD2mJt9fsCf / scenecut=40 / radl=0 / no-intra-refresh / ctu=32 / min-cu-size=8 / rect / no-amp / max-tu-size=16 / tu-inter-depth=2 / tu-intra-depth=2 / limit-tu=4 / rdoq-level=1 / dynamic-rd=0.00 / ssim-rd / signhide / no-tskip / nr-intra=0 / nr-inter=0 / no-constrained-intra / no-strong-intra-smoothing / max-merge=3 / limit-refs=2 / limit-modes / me=3 / subme=5 / merange=25 / temporal-mvp / weightp / weightb / no-analyze-src-pics / deblock=-1:-1 / no-sao / no-sao-non-deblock / rd=4 / no-early-skip / rskip / no-fast-intra / no-tskip-fast / no-cu-lossless / b-intra / no-splitrd-skip / rdpenalty=1 / psy-rd=0.00 / psy-rdoq=5.00 / no-rd-refine / no-lossless / cbqpoffs=-2 / crqpoffs=-2 / rc=crf / crf=20.0 / qcomp=0.70 / qpstep=4 / stats-write=0 / stats-read=0 / ipratio=1.40 / pbratio=1.30 / aq-mode=1 / aq-strength=0.80 / cutree / zone-count=0 / no-strict-cbr / qg-size=16 / no-rc-grain / qpmax=69 / qpmin=0 / no-const-vbv / sar=0 / overscan=0 / videoformat=5 / range=0 / colorprim=1 / transfer=2 / colormatrix=2 / chromaloc=0 / display-window=0 / max-cll=0,0 / min-luma=0 / max-luma=1023 / log2-max-poc-lsb=8 / vui-timing-info / vui-hrd-info / slices=1 / no-opt-qp-pps / no-opt-ref-list-length-pps / no-multi-pass-opt-rps / scenecut-bias=0.05 / no-opt-cu-delta-qp / no-aq-motion / no-hdr / no-hdr-opt / no-dhdr10-opt / no-idr-recovery-sei / analysis-reuse-level=5 / scale-factor=0 / refine-intra=0 / refine-inter=0 / refine-mv=0 / no-limit-sao / ctu-info=0 / no-lowpass-dct / refine-mv-type=0 / copy-pic=1 / max-ausize-factor=1.0 / no-dynamic-refine / no-single-sei
  33. Language                                 : Chinese
  34. Default                                  : Yes
  35. Forced                                   : No
  36. Color range                              : Limited
  37. Color primaries                          : BT.709
  38. Audio #1
  39. ID                                       : 2
  40. Format                                   : AC-3
  41. Format/Info                              : Audio Coding 3
  42. Commercial name                          : Dolby Digital
  43. Codec ID                                 : A_AC3
  44. Duration                                 : 2 h 15 min
  45. Bit rate mode                            : Constant
  46. Bit rate                                 : 640 kb/s
  47. Channel(s)                               : 6 channels
  48. Channel layout                           : L R C LFE Ls Rs
  49. Sampling rate                            : 48.0 kHz
  50. Frame rate                               : 31.250 FPS (1536 SPF)
  51. Compression mode                         : Lossy
  52. Stream size                              : 619 MiB (10%)
  53. Title                                    : 粤语
  54. Language                                 : Chinese
  55. Service kind                             : Complete Main
  56. Default                                  : Yes
  57. Forced                                   : No
  58. Audio #2
  59. ID                                       : 3
  60. Format                                   : AC-3
  61. Format/Info                              : Audio Coding 3
  62. Commercial name                          : Dolby Digital
  63. Codec ID                                 : A_AC3
  64. Duration                                 : 2 h 15 min
  65. Bit rate mode                            : Constant
  66. Bit rate                                 : 640 kb/s
  67. Channel(s)                               : 6 channels
  68. Channel layout                           : L R C LFE Ls Rs
  69. Sampling rate                            : 48.0 kHz
  70. Frame rate                               : 31.250 FPS (1536 SPF)
  71. Compression mode                         : Lossy
  72. Stream size                              : 619 MiB (10%)
  73. Title                                    : 国语
  74. Language                                 : Chinese
  75. Service kind                             : Complete Main
  76. Default                                  : No
  77. Forced                                   : No
  78. Text #1
  79. ID                                       : 4
  80. Format                                   : PGS
  81. Muxing mode                              : zlib
  82. Codec ID                                 : S_HDMV/PGS
  83. Codec ID/Info                            : Picture based subtitle format used on BDs/HD-DVDs
  84. Title                                    : 繁体
  85. Language                                 : Chinese
  86. Default                                  : Yes
  87. Forced                                   : No
  88. Text #2
  89. ID                                       : 5
  90. Format                                   : PGS
  91. Muxing mode                              : zlib
  92. Codec ID                                 : S_HDMV/PGS
  93. Codec ID/Info                            : Picture based subtitle format used on BDs/HD-DVDs
  94. Title                                    : 简体
  95. Language                                 : Chinese
  96. Default                                  : No
  97. Forced                                   : No
  98. Text #3
  99. ID                                       : 6
  100. Format                                   : PGS
  101. Muxing mode                              : zlib
  102. Codec ID                                 : S_HDMV/PGS
  103. Codec ID/Info                            : Picture based subtitle format used on BDs/HD-DVDs
  104. Title                                    : 英文
  105. Language                                 : English
  106. Default                                  : No
  107. Forced                                   : No
  108. Menu
  109. 00:00:00.000                             : en:Chapter 01
  110. 00:02:31.875                             : en:Chapter 02
  111. 00:04:58.583                             : en:Chapter 03
  112. 00:11:21.708                             : en:Chapter 04
  113. 00:22:40.291                             : en:Chapter 05
  114. 00:28:27.000                             : en:Chapter 06
  115. 00:36:27.416                             : en:Chapter 07
  116. 00:43:28.125                             : en:Chapter 08
  117. 00:50:56.958                             : en:Chapter 09
  118. 00:58:57.625                             : en:Chapter 10
  119. 01:06:48.000                             : en:Chapter 11
  120. 01:14:35.208                             : en:Chapter 12
  121. 01:21:18.958                             : en:Chapter 13
  122. 01:28:24.833                             : en:Chapter 14
  123. 01:34:31.166                             : en:Chapter 15
  124. 01:40:08.791                             : en:Chapter 16
  125. 01:46:32.416                             : en:Chapter 17
  126. 01:53:06.083                             : en:Chapter 18
  127. 01:58:24.500                             : en:Chapter 19
  128. 02:06:51.333                             : en:Chapter 20





此处一般会放置磁力链或种子下载链接,不过此链接需要注册会员才能看到,点击“立即注册”
磁力链下载【下载链接仅对注册会员开放,登陆后可见】
BT9527电影天堂 1、BT9527电影天堂提供的BT文件均来源于互联网抓取,只供网友学习交流、技术提升使用。
2、我们遵守BitTorrent点对点协议原则,任何版权问题请联系原资源发布商,我们不处理任何版权纠纷,谢谢!如有争议请联系邮箱:BT9527#hotmail.com(#换成@)
3、如果您发现某页面或地址有错误,请联系站长邮箱BT9527#hotmail.com(#换成@),我们会尽快处理。您的热心是对BT9527电影天堂最大的支持。
4、本站建议去正规影院观看电影以支持电影行业发展。
最新回复 (0)

你可以在 登录 or 注册 后,对此帖发表评论!

返回
发新帖