十二生肖[国粤多音轨/简繁英字幕].Chinese.Zodiac.2012.BluRay.1080p.x265.10bit.2Audio-MiniHD 8.80GB

版主小s 3月前 165

✔资源类型:暂未分类   ✔电影年份:2012   ✔电影地区:大陆   ✔电影分类:喜剧

◎译  名 十二生肖 / 12生肖 / 生肖传说 / 飞鹰计划3 / 成龙计划 / Chinese Zodiac / Armour of God III / CZ12 / Rising Dragon
◎年  代 2012
◎产  地 中国大陆 / 中国香港
◎类  别 喜剧 / 动作 / 冒险
◎语  言 英语 / 汉语普通话 / 粤语 / 法语 / 西班牙语
◎上映日期 2012-12-20(中国大陆/中国香港) / 2012-12-12(中国香港电影节)
◎IMDb链接 https://www.imdb.com/title/tt1424310/
◎豆瓣评分 6.7/10 (331479人评价)
◎豆瓣链接 https://movie.douban.com/subject/4212172/
◎片  长 122分钟
◎导  演 成龙 Jackie Chan (id:1054531)
◎编  剧 成龙 Jackie Chan (id:1054531)
       唐季礼 Stanley Tong (id:1299382)
       邓景生 Edward Tang (id:1298905)
       陈勋奇 Frankie Chan (id:1280419)
◎演  员 成龙 Jackie Chan (id:1054531)
       权相宇 Sang-woo Kwon (id:1223767)
       廖凡 Fan Liao (id:1007401)
       姚星彤 Xingtong Yao (id:1318516)
       张蓝心 Lanxin Zhang (id:1324267)
       白露娜 Laura Weissbecker (id:1324346)
       刘承俊 Sung-jun Yoo (id:1314482)
       吴彦祖 Daniel Wu (id:1027502)
       舒淇 Qi Shu (id:1138320)
       李宗盛 Jonathan Lee (id:1275136)
       陈柏霖 Bo-lin Chen (id:1211987)
       卢惠光 Ken Lo (id:1032633)
       耿长军 Asano Nagahide (id:1314015)
       白冰 Bing Bai (id:1275547)
       林鹏 Peng Lin (id:1275739)
       梅丽安·布兰卡特 Myriam Blanckaert (id:1334721)
       吕克·本扎 Luc Bendza (id:1330815)
       崔浩博 Haobo Cui (id:1349937)
       马修·雷·鲁格斯 Matthew Ray Ruggles (id:1379178)
       奥利弗·普莱特 Oliver Platt (id:1013849)
       阿拉·萨菲 Alaa Safi (id:1232518)
       勃小龙 Pierre Bourdaud (id:1371197)
       穆爱华 Charlotte MacInnis (id:1374584)
       艾文·科蒂克 Ivan Kotik (id:1336758)
       姜文 Wen Jiang (id:1021999)
       罗伟 Robert Gilabert Cuenca (id:1340969)
       保罗·菲利普·克拉克 Paul Philip Clark (id:1336356)
       艾米丽·古利奥特 Emilie Guillot (id:1334720)
       凯特琳·戴雪儿 Caitlin Dechelle (id:1334719)
       林凤娇 Feng-Jiao Lin (id:1083380)
       王庆祥 Qingxiang Wang (id:1300406)
       成龙 Jackie Chan (id:1054531)
       林淑贤 Debbie Lam Suk-Yin (id:1411136)
       杨受成 Albert Yeung (id:1313455)
       孙嵘 Rong Sun (id:1466974)
       李菲 Fei Li (id:1400568)
       利雅博 Albert Lee (id:1326683)
       董韵诗 Barbie Tung (id:1299616)
       杨庭恺 Bernard Yang (id:1443208)
       成龙 Jackie Chan (id:1054531)
       阿鲲 Roc Chen (id:1376620)
       王宗贤 Nathan Wang (id:1331828)
       成龙 Jackie Chan (id:1054531)
       成龙 Jackie Chan (id:1054531)
       成龙 Jackie Chan (id:1054531)
       成龙 Jackie Chan (id:1054531)
       成龙 Jackie Chan (id:1054531)
       温皓 Hao Wen (id:1396699)
       李昭桦 Charles Lee (id:1352759)
       何钧 Jun He (id:1326656)
       成龙 Jackie Chan (id:1054531)
       成龙 Jackie Chan (id:1054531)

◎简  介
  当年英法联军火烧圆明园,致使大批珍贵文物流落海外,其中四尊十二生肖兽首最引人关注,不仅惹出国内外的广泛争论,更有收藏家开出天价竞拍这几尊珍品。当然,其间不乏奸邪的文物贩子,试图通过偷盗的手段获取宝贝。以此为契机,正在度假的国际大盗JC(成龙 饰)隆重登场。JC背后有一支 Simon(权相宇 饰)、David(廖凡 饰)、Bonnie(张蓝心 饰)等人共同组成的超专业团队,他们一同远赴巴黎,寻求国宝鉴定专家Coco(姚星彤 饰)的帮助。经过周密细致的准备,JC等人一步步逼近重兵把守的兽首,而围绕珍宝不可避免爆发连番惊险火爆的打斗与追逐。                                    
                                在这一过程中,JC似曾被利益和金钱泯灭的爱国之心渐渐苏醒……

◎获奖情况 (共12项)
  第50届台北金马影展 (2013)
  金马奖 最佳动作设计

  第32届香港电影金像奖 (2013)
  最佳新演员(提名)
   └──张蓝心 (id:1324267)
  最佳剪接(提名)
   └──邱志伟 (id:1301446)
  最佳动作设计
  最佳视觉效果(提名)
   └──黄宏达 (id:1307421)

  第32届大众电影百花奖 (2014)
  最佳男主角(提名)
   └──成龙 (id:1054531)
  最佳女主角(提名)
   └──姚星彤 (id:1318516)
  最佳新人(提名)
   └──张蓝心 (id:1324267)

  第15届中国电影华表奖 (2013)
  优秀合拍片奖

  第20届北京大学生电影节 (2013)
  最佳男演员奖(提名)
   └──成龙 (id:1054531)
  最佳新人奖(提名)
   └──张蓝心 (id:1324267)
  最佳观赏效果奖(提名)

  1. ##### MediaInfo ######
  2. General
  3. Unique ID                                : 88145956670272959978147978263779918594 (0x42504B32BA4D05D0389EBCD81C7CC302)
  4. Complete name                            : Chinese.Zodiac.2012.BluRay.1080p.x265.10bit.2Audio-MiniHD.mkv
  5. Format                                   : Matroska
  6. Format version                           : Version 4
  7. File size                                : 8.80 GiB
  8. Duration                                 : 2 h 2 min
  9. Overall bit rate                         : 10.2 Mb/s
  10. Encoded date                             : UTC 2018-09-22 05:08:12
  11. Writing application                      : mkvmerge v20.0.0 ('I Am The Sun') 64-bit
  12. Writing library                          : libebml v1.3.5 + libmatroska v1.4.8
  13. Video
  14. ID                                       : 1
  15. Format                                   : HEVC
  16. Format/Info                              : High Efficiency Video Coding
  17. Format profile                           : Main 10@L4@Main
  18. Codec ID                                 : V_MPEGH/ISO/HEVC
  19. Duration                                 : 2 h 2 min
  20. Bit rate                                 : 8 039 kb/s
  21. Width                                    : 1 920 pixels
  22. Height                                   : 816 pixels
  23. Display aspect ratio                     : 2.35:1
  24. Frame rate mode                          : Constant
  25. Frame rate                               : 23.976 (24000/1001/53354) FPS
  26. Color space                              : YUV
  27. Chroma subsampling                       : 4:2:0
  28. Bit depth                                : 10 bits
  29. Bits/(Pixel*Frame)                       : 0.214
  30. Stream size                              : 6.91 GiB (79%)
  31. Writing library                          : x265 2.8+1-478bfe2b7673:[Windows][GCC 7.3.0][64 bit] 10bit
  32. Encoding settings                        : cpuid=533541111039 / frame-threads=4 / numa-pools=16 / wpp / no-pmode / no-pme / no-psnr / no-ssim / log-level=2 / csv / csv-log-level=0 / input-csp=1 / input-res=1920x816 / interlace=0 / total-frames=176941 / level-idc=0 / high-tier=1 / uhd-bd=0 / ref=5 / no-allow-non-conformance / no-repeat-headers / annexb / no-aud / no-hrd / info / hash=0 / no-temporal-layers / no-open-gop / min-keyint=1 / keyint=360 / gop-lookahead=0 / bframes=9 / b-adapt=2 / b-pyramid / bframe-bias=0 / rc-lookahead=60 / lookahead-slices=4 / NTMzNTQ=uuDQuD2mJt9fsCf / scenecut=40 / radl=0 / no-intra-refresh / ctu=32 / min-cu-size=8 / rect / no-amp / max-tu-size=16 / tu-inter-depth=2 / tu-intra-depth=2 / limit-tu=4 / rdoq-level=1 / dynamic-rd=0.00 / ssim-rd / signhide / no-tskip / nr-intra=0 / nr-inter=0 / no-constrained-intra / no-strong-intra-smoothing / max-merge=3 / limit-refs=2 / limit-modes / me=3 / subme=5 / merange=25 / temporal-mvp / weightp / weightb / no-analyze-src-pics / deblock=-1:-1 / no-sao / no-sao-non-deblock / rd=4 / no-early-skip / rskip / no-fast-intra / no-tskip-fast / no-cu-lossless / b-intra / no-splitrd-skip / rdpenalty=1 / psy-rd=0.00 / psy-rdoq=5.00 / no-rd-refine / no-lossless / cbqpoffs=-2 / crqpoffs=-2 / rc=crf / crf=21.0 / qcomp=0.70 / qpstep=4 / stats-write=0 / stats-read=0 / ipratio=1.40 / pbratio=1.30 / aq-mode=1 / aq-strength=0.80 / cutree / zone-count=0 / no-strict-cbr / qg-size=16 / no-rc-grain / qpmax=69 / qpmin=0 / no-const-vbv / sar=0 / overscan=0 / videoformat=5 / range=0 / colorprim=1 / transfer=2 / colormatrix=2 / chromaloc=0 / display-window=0 / max-cll=0,0 / min-luma=0 / max-luma=1023 / log2-max-poc-lsb=8 / vui-timing-info / vui-hrd-info / slices=1 / no-opt-qp-pps / no-opt-ref-list-length-pps / no-multi-pass-opt-rps / scenecut-bias=0.05 / no-opt-cu-delta-qp / no-aq-motion / no-hdr / no-hdr-opt / no-dhdr10-opt / no-idr-recovery-sei / analysis-reuse-level=5 / scale-factor=0 / refine-intra=0 / refine-inter=0 / refine-mv=0 / no-limit-sao / ctu-info=0 / no-lowpass-dct / refine-mv-type=0 / copy-pic=1 / max-ausize-factor=1.0 / no-dynamic-refine / no-single-sei
  33. Language                                 : Chinese
  34. Default                                  : Yes
  35. Forced                                   : No
  36. Color range                              : Limited
  37. Color primaries                          : BT.709
  38. Audio #1
  39. ID                                       : 2
  40. Format                                   : DTS
  41. Format/Info                              : Digital Theater Systems
  42. Codec ID                                 : A_DTS
  43. Duration                                 : 2 h 2 min
  44. Bit rate mode                            : Constant
  45. Bit rate                                 : 1 509 kb/s
  46. Channel(s)                               : 6 channels
  47. Channel layout                           : C L R Ls Rs LFE
  48. Sampling rate                            : 48.0 kHz
  49. Frame rate                               : 93.750 FPS (512 SPF)
  50. Bit depth                                : 24 bits
  51. Compression mode                         : Lossy
  52. Stream size                              : 1.30 GiB (15%)
  53. Title                                    : 粤语
  54. Language                                 : Chinese
  55. Default                                  : Yes
  56. Forced                                   : No
  57. Audio #2
  58. ID                                       : 3
  59. Format                                   : AC-3
  60. Format/Info                              : Audio Coding 3
  61. Commercial name                          : Dolby Digital
  62. Codec ID                                 : A_AC3
  63. Duration                                 : 2 h 2 min
  64. Bit rate mode                            : Constant
  65. Bit rate                                 : 640 kb/s
  66. Channel(s)                               : 6 channels
  67. Channel layout                           : L R C LFE Ls Rs
  68. Sampling rate                            : 48.0 kHz
  69. Frame rate                               : 31.250 FPS (1536 SPF)
  70. Compression mode                         : Lossy
  71. Stream size                              : 563 MiB (6%)
  72. Title                                    : 国语
  73. Service kind                             : Complete Main
  74. Default                                  : No
  75. Forced                                   : No
  76. Text #1
  77. ID                                       : 4
  78. Format                                   : PGS
  79. Muxing mode                              : zlib
  80. Codec ID                                 : S_HDMV/PGS
  81. Codec ID/Info                            : Picture based subtitle format used on BDs/HD-DVDs
  82. Duration                                 : 1 h 56 min
  83. Bit rate                                 : 33.4 kb/s
  84. Count of elements                        : 3910
  85. Stream size                              : 27.7 MiB (0%)
  86. Title                                    : 繁体
  87. Language                                 : Chinese
  88. Default                                  : Yes
  89. Forced                                   : No
  90. Text #2
  91. ID                                       : 5
  92. Format                                   : PGS
  93. Muxing mode                              : zlib
  94. Codec ID                                 : S_HDMV/PGS
  95. Codec ID/Info                            : Picture based subtitle format used on BDs/HD-DVDs
  96. Duration                                 : 1 h 56 min
  97. Bit rate                                 : 33.3 kb/s
  98. Count of elements                        : 3910
  99. Stream size                              : 27.6 MiB (0%)
  100. Title                                    : 简体
  101. Language                                 : Chinese
  102. Default                                  : No
  103. Forced                                   : No
  104. Text #3
  105. ID                                       : 6
  106. Format                                   : PGS
  107. Muxing mode                              : zlib
  108. Codec ID                                 : S_HDMV/PGS
  109. Codec ID/Info                            : Picture based subtitle format used on BDs/HD-DVDs
  110. Duration                                 : 1 h 56 min
  111. Bit rate                                 : 35.1 kb/s
  112. Count of elements                        : 3926
  113. Stream size                              : 29.1 MiB (0%)
  114. Title                                    : 英文
  115. Language                                 : English
  116. Default                                  : No
  117. Forced                                   : No
  118. Menu
  119. 00:00:00.000                             : en:Chapter 01
  120. 00:11:18.886                             : en:Chapter 02
  121. 00:20:16.590                             : en:Chapter 03
  122. 00:35:02.100                             : en:Chapter 04
  123. 00:45:02.741                             : en:Chapter 05
  124. 00:51:56.905                             : en:Chapter 06
  125. 01:01:14.962                             : en:Chapter 07
  126. 01:09:57.735                             : en:Chapter 08
  127. 01:16:49.688                             : en:Chapter 09
  128. 01:26:06.619                             : en:Chapter 10
  129. 01:41:29.291                             : en:Chapter 11
  130. 01:51:51.121                             : en:Chapter 12





此处一般会放置磁力链或种子下载链接,不过此链接需要注册会员才能看到,点击“立即注册”
磁力链下载【下载链接仅对注册会员开放,登陆后可见】
BT9527电影天堂 1、BT9527电影天堂提供的BT文件均来源于互联网抓取,只供网友学习交流、技术提升使用。
2、我们遵守BitTorrent点对点协议原则,任何版权问题请联系原资源发布商,我们不处理任何版权纠纷,谢谢!如有争议请联系邮箱:BT9527#hotmail.com(#换成@)
3、如果您发现某页面或地址有错误,请联系站长邮箱BT9527#hotmail.com(#换成@),我们会尽快处理。您的热心是对BT9527电影天堂最大的支持。
4、本站建议去正规影院观看电影以支持电影行业发展。
最新回复 (1)
  • JASON東爺 3月前
    2
    成龙电影集多元化,搞笑惊险集一部,不错

你可以在 登录 or 注册 后,对此帖发表评论!

返回
发新帖