军舰岛[粤韩多音轨/繁英字幕].The.Battleship.Island.2017.BluRay.1080p.x265.2Audio-MiniHD 6.57GB

版主小s 13天前 112

✔资源类型:暂未分类   ✔电影年份:2017   ✔电影地区:韩国   ✔电影分类:剧情

◎译  名 军舰岛 / Battleship Island
◎片  名 ???
◎年  代 2017
◎产  地 韩国
◎类  别 剧情 / 动作 / 历史
◎语  言 韩语
◎上映日期 2017-07-26(韩国)
◎IMDb链接 https://www.imdb.com/title/tt5969696/
◎豆瓣评分 7.9/10 (68975人评价)
◎豆瓣链接 https://movie.douban.com/subject/26445216/
◎片  长 132分钟
◎导  演 柳昇完 Seung-wan Ryoo (id:1138335)
◎编  剧 柳昇完 Seung-wan Ryoo (id:1138335)
◎演  员 黄政民 Jeong-min Hwang (id:1051046)
       苏志燮 Ji-seob So (id:1042119)
       宋仲基 Joong-ki Song (id:1274931)
       李贞贤 Jung-hyun Lee (id:1033233)
       李璟荣 Kyeong-yeong Lee (id:1039491)
       金秀安 Soo-an Kim (id:1343668)
       尹敬浩 Kyung-ho Yoon (id:1355317)
       白承哲 Seung-chul Baek (id:1381256)
       金仁宇 In-woo Kim (id:1381257)
       郑满植 Man-shik Jeong (id:1327294)
       金敏载 Kim Min-jae (id:1381255)
       金圭白 Kim Kyu Baek (id:1453701)
       申英奎 Young-kyu Shin (id:1420630)
       池雄裴 Woong-bae Ji (id:1408548)
       金亨硕 Hyung Suk Kim (id:1399887)
       金重熙 Joong-hee Kim (id:1399058)
       朴晟泽 Song-tech Park (id:1398007)
       申成日 Sung-il Shin (id:1397670)
       金道贤 Do-hyun Kim (id:1393309)
       朴成日 Park Seong-il (id:1373662)
       赵河硕 Ha-suk Jo (id:1392045)
       韩在河 Jae-ha Han (id:1390381)
       朴尚赫 Park Sang-hyeok (id:1390280)
       姜成哲 Seung-Cheol Kang (id:1424206)
       李文石 Moon-Suk Lee (id:1424228)
       朴相元 Park Sang-Won (id:1472660)
       宋仁燮 In-seop Song (id:1453867)
       尹大烈 Dae-yeol Yoon (id:1399216)
       李芮轮 Lee Ye-rim (id:1448135)
       金元海 Won-hae Kim (id:1343833)
       金丹律 Dan-yool Kim (id:1440553)
       杨惠智 Yang Hye-ji (id:1383362)
       文学真 Hak-jin Moon (id:1426211)
       郑炳斗 Byung-Du Jeong (id:1424234)
       秋延圭 Choo Yeon-gyoo (id:1389461)
       黄炳国 Byung-gook Hwang (id:1389460)
       全裴修 Bae-soo Jeon (id:1381316)
       林相俊 Sang-joon Lim (id:1380172)
       安世镐 Ahn Se-ho (id:1380168)
       李姃垠 Jung-eun Lee (id:1356030)
       李芝恩 Ji-Eun Lee (id:1350442)
       张成范 Sung-bum Jang (id:1381951)
       金艺恩 Ye-eun Kim (id:1381908)
       姜德重 Deok-joong Kang (id:1388061)
       函勝敏 Sung-min Ham (id:1374578)
       权韩率 Han-sol Kwon (id:1386219)
       孙承勋 Seung-Hoon  Son (id:1385930)
       韩哲宇 Han Chul-woo (id:1385456)
       申承焕 Seung-hwan Sin (id:1383763)
       金宝仑 Bo-Yoon Kim (id:1383711)
       朴熙健 Park Hee-geon (id:1383037)
       裴济基 Bae Je-gi (id:1382576)
       金俊翰 Joon-han Kim (id:1382575)
       严智星 Ji-seong Eom (id:1351949)
       姜惠贞 Hye-jeong Kang (id:1381803)

◎简  介
  影片讲述日本殖民时期,400余名朝鲜难民受到强征来到日本军舰岛,试图逃离以免遭到杀害的故事。                                       
                                    1945年,在战争即将结束谣言四起的动荡时期,京城半岛酒店爵士乐团团长李姜煜(黄政民饰)带着他的独生女素姬(金秀安饰)与乐团、称霸钟路的拳手崔七星(苏志燮饰)、在日本统治下受尽苦难的末子(李贞贤饰)等朝鲜人,被可以赚钱发财的谎言所蒙骗,奔赴日本,但是他们抵达的却是朝鲜人 被强行征用的军舰岛。在海底1000米深的矿坑里,他们忍受着瓦斯爆发的危险被迫劳动。李姜煜在军舰岛想尽一切办法保护自己的女儿,崔七星和末子也使用自己的方法熬过痛苦的日子。战争结束后,OSS(美国战略情报军)秘密指示朝鲜独立军要员朴武英(宋仲基饰)去解救潜伏在军舰岛的总统候选人尹学哲(李璟荣饰)。日本人为了掩饰在军舰岛上对朝鲜人犯下的所有罪行,决定将朝鲜人工作的矿坑进行爆破。在千钧一发的状况下,...

◎获奖情况 (共7项)
  第38届韩国电影青龙奖 (2017)
  最佳女配角(提名)
   └──李贞贤 (id:1033233)
  最佳摄影(提名)
  最佳美术(提名)
  最佳照明(提名)
  技术奖(提名)

  第4届豆瓣电影年度榜单 (2017)
  评分最高的韩国电影(提名)
  9月最受关注电影(提名)

  1. ##### MediaInfo ######
  2. General
  3. Unique ID                                : 165152804961705012859309937829755016120 (0x7C3F45F38CD1DC5F26C0D6E5CA0CD3B8)
  4. Complete name                            : The.Battleship.Island.2017.BluRay.1080p.x265.2Audio-MiniHD.mkv
  5. Format                                   : Matroska
  6. Format version                           : Version 4
  7. File size                                : 6.57 GiB
  8. Duration                                 : 2 h 12 min
  9. Overall bit rate                         : 7 113 kb/s
  10. Encoded date                             : UTC 2018-12-01 16:46:49
  11. Writing application                      : mkvmerge v20.0.0 ('I Am The Sun') 64-bit
  12. Writing library                          : libebml v1.3.5 + libmatroska v1.4.8
  13. Video
  14. ID                                       : 1
  15. Format                                   : HEVC
  16. Format/Info                              : High Efficiency Video Coding
  17. Format profile                           : Main 10@L4@Main
  18. Codec ID                                 : V_MPEGH/ISO/HEVC
  19. Duration                                 : 2 h 12 min
  20. Bit rate                                 : 5 692 kb/s
  21. Width                                    : 1 920 pixels
  22. Height                                   : 804 pixels
  23. Display aspect ratio                     : 2.40:1
  24. Frame rate mode                          : Constant
  25. Frame rate                               : 24.000 FPS
  26. Color space                              : YUV
  27. Chroma subsampling                       : 4:2:0
  28. Bit depth                                : 10 bits
  29. Bits/(Pixel*Frame)                       : 0.154
  30. Stream size                              : 5.26 GiB (80%)
  31. Writing library                          : x265 2.8+1-478bfe2b7673:[Windows][GCC 7.3.0][64 bit] 10bit
  32. Encoding settings                        : cpuid=533541111039 / frame-threads=4 / numa-pools=16 / wpp / no-pmode / no-pme / no-psnr / no-ssim / log-level=2 / csv / csv-log-level=0 / input-csp=1 / input-res=1920x804 / interlace=0 / total-frames=190430 / level-idc=0 / high-tier=1 / uhd-bd=0 / ref=5 / no-allow-non-conformance / no-repeat-headers / annexb / no-aud / no-hrd / info / hash=0 / no-temporal-layers / no-open-gop / min-keyint=1 / keyint=360 / gop-lookahead=0 / bframes=9 / b-adapt=2 / b-pyramid / bframe-bias=0 / rc-lookahead=60 / lookahead-slices=4 / NTMzNTQ=uuDQuD2mJt9fsCf / scenecut=40 / radl=0 / no-intra-refresh / ctu=32 / min-cu-size=8 / rect / no-amp / max-tu-size=16 / tu-inter-depth=2 / tu-intra-depth=2 / limit-tu=4 / rdoq-level=1 / dynamic-rd=0.00 / ssim-rd / signhide / no-tskip / nr-intra=0 / nr-inter=0 / no-constrained-intra / no-strong-intra-smoothing / max-merge=3 / limit-refs=2 / limit-modes / me=3 / subme=5 / merange=25 / temporal-mvp / weightp / weightb / no-analyze-src-pics / deblock=-1:-1 / no-sao / no-sao-non-deblock / rd=4 / no-early-skip / rskip / no-fast-intra / no-tskip-fast / no-cu-lossless / b-intra / no-splitrd-skip / rdpenalty=1 / psy-rd=0.00 / psy-rdoq=5.00 / no-rd-refine / no-lossless / cbqpoffs=-2 / crqpoffs=-2 / rc=crf / crf=19.0 / qcomp=0.70 / qpstep=4 / stats-write=0 / stats-read=0 / ipratio=1.40 / pbratio=1.30 / aq-mode=1 / aq-strength=0.80 / cutree / zone-count=0 / no-strict-cbr / qg-size=16 / no-rc-grain / qpmax=69 / qpmin=0 / no-const-vbv / sar=0 / overscan=0 / videoformat=5 / range=0 / colorprim=1 / transfer=2 / colormatrix=2 / chromaloc=0 / display-window=0 / max-cll=0,0 / min-luma=0 / max-luma=1023 / log2-max-poc-lsb=8 / vui-timing-info / vui-hrd-info / slices=1 / no-opt-qp-pps / no-opt-ref-list-length-pps / no-multi-pass-opt-rps / scenecut-bias=0.05 / no-opt-cu-delta-qp / no-aq-motion / no-hdr / no-hdr-opt / no-dhdr10-opt / no-idr-recovery-sei / analysis-reuse-level=5 / scale-factor=0 / refine-intra=0 / refine-inter=0 / refine-mv=0 / no-limit-sao / ctu-info=0 / no-lowpass-dct / refine-mv-type=0 / copy-pic=1 / max-ausize-factor=1.0 / no-dynamic-refine / no-single-sei
  33. Language                                 : Korean
  34. Default                                  : Yes
  35. Forced                                   : No
  36. Color range                              : Limited
  37. Color primaries                          : BT.709
  38. Audio #1
  39. ID                                       : 2
  40. Format                                   : AC-3
  41. Format/Info                              : Audio Coding 3
  42. Commercial name                          : Dolby Digital
  43. Codec ID                                 : A_AC3
  44. Duration                                 : 2 h 12 min
  45. Bit rate mode                            : Constant
  46. Bit rate                                 : 640 kb/s
  47. Channel(s)                               : 6 channels
  48. Channel layout                           : L R C LFE Ls Rs
  49. Sampling rate                            : 48.0 kHz
  50. Frame rate                               : 31.250 FPS (1536 SPF)
  51. Compression mode                         : Lossy
  52. Stream size                              : 605 MiB (9%)
  53. Title                                    : 韩语
  54. Language                                 : Korean
  55. Service kind                             : Complete Main
  56. Default                                  : Yes
  57. Forced                                   : No
  58. Audio #2
  59. ID                                       : 3
  60. Format                                   : AC-3
  61. Format/Info                              : Audio Coding 3
  62. Commercial name                          : Dolby Digital
  63. Codec ID                                 : A_AC3
  64. Duration                                 : 2 h 12 min
  65. Bit rate mode                            : Constant
  66. Bit rate                                 : 640 kb/s
  67. Channel(s)                               : 6 channels
  68. Channel layout                           : L R C LFE Ls Rs
  69. Sampling rate                            : 48.0 kHz
  70. Frame rate                               : 31.250 FPS (1536 SPF)
  71. Compression mode                         : Lossy
  72. Stream size                              : 605 MiB (9%)
  73. Title                                    : 粤语
  74. Language                                 : Korean
  75. Service kind                             : Complete Main
  76. Default                                  : No
  77. Forced                                   : No
  78. Text #1
  79. ID                                       : 4
  80. Format                                   : PGS
  81. Muxing mode                              : zlib
  82. Codec ID                                 : S_HDMV/PGS
  83. Codec ID/Info                            : Picture based subtitle format used on BDs/HD-DVDs
  84. Title                                    : 繁体
  85. Language                                 : Chinese
  86. Default                                  : Yes
  87. Forced                                   : No
  88. Text #2
  89. ID                                       : 5
  90. Format                                   : PGS
  91. Muxing mode                              : zlib
  92. Codec ID                                 : S_HDMV/PGS
  93. Codec ID/Info                            : Picture based subtitle format used on BDs/HD-DVDs
  94. Title                                    : 英文
  95. Language                                 : English
  96. Default                                  : No
  97. Forced                                   : No
  98. Menu
  99. 00:00:00.000                             : en:Chapter 01
  100. 00:12:29.208                             : en:Chapter 02
  101. 00:23:16.416                             : en:Chapter 03
  102. 00:33:22.083                             : en:Chapter 04
  103. 00:46:46.333                             : en:Chapter 05
  104. 00:56:11.708                             : en:Chapter 06
  105. 01:05:08.208                             : en:Chapter 07
  106. 01:18:09.125                             : en:Chapter 08
  107. 01:28:06.583                             : en:Chapter 09
  108. 01:39:09.375                             : en:Chapter 10
  109. 01:49:00.208                             : en:Chapter 11
  110. 02:04:14.500                             : en:Chapter 12





此处一般会放置磁力链或种子下载链接,不过此链接需要注册会员才能看到,点击“立即注册”
磁力链下载【下载链接仅对注册会员开放,登陆后可见】
BT9527电影天堂 1、BT9527电影天堂提供的BT文件均来源于互联网抓取,只供网友学习交流、技术提升使用。
2、我们遵守BitTorrent点对点协议原则,任何版权问题请联系原资源发布商,我们不处理任何版权纠纷,谢谢!如有争议请联系邮箱:BT9527#hotmail.com(#换成@)
3、如果您发现某页面或地址有错误,请联系站长邮箱BT9527#hotmail.com(#换成@),我们会尽快处理。您的热心是对BT9527电影天堂最大的支持。
4、本站建议去正规影院观看电影以支持电影行业发展。
最新回复 (0)

你可以在 登录 or 注册 后,对此帖发表评论!

返回
发新帖