亚当斯一家[中文字幕].The.Addams.Family.2019.2160p.HDR.UHD.BluRay.DTS-HD.MA.5.1.x265-10bit-ENTHD 10.62GB

版主小s 7天前 22

✔资源类型:BD-4K   ✔电影年份:2019   ✔电影地区:其他   ✔电影分类:喜剧

◎译  名 亚当斯一家 / 爱登士家庭(港) / 阿达一族(台)
◎片  名 The Addams Family
◎年  代 2019
◎产  地 加拿大 / 美国 / 英国 / 德国 / 印度
◎类  别 喜剧 / 动画 / 家庭 / 奇幻
◎语  言 英语 / 西班牙语 / 意大利语 / 法语
◎上映日期 2019-10-11(美国)
◎IMDb链接 https://www.imdb.com/title/tt1620981/
◎豆瓣评分 7.2/10 (19584人评价)
◎豆瓣链接 https://movie.douban.com/subject/4811807/
◎片  长 87分钟
◎导  演 格雷格·蒂曼 Greg Tiernan (id:1357971)
       康拉德·弗农 Conrad Vernon (id:1009555)
◎编  剧 马特·利伯曼 Matt Lieberman (id:1405591)
       查尔斯·亚当斯 Charles Addams (id:1014593)
       帕米拉·帕特勒 Pamela Pettler (id:1301900)
◎演  员 查理兹·塞隆 Charlize Theron (id:1018991)
       科洛·莫瑞兹 Chlo? Grace Moretz (id:1018981)
       奥斯卡·伊萨克 Oscar Isaac (id:1012481)
       菲恩·伍法德 Finn Wolfhard (id:1359349)
       艾莉森·珍妮 Allison Janney (id:1041139)
       埃美·加西亚 Aimee Garcia (id:1036540)
       尼克·克罗尔 Nick Kroll (id:1321396)
       艾尔西·费舍尔 Elsie Fisher (id:1313065)
       贝特·米德勒 Bette Midler (id:1055782)
       斯科特?安德伍德 Scott Underwood (id:1414172)
       Chelsea Frei Chelsea Frei (id:1452750)
       帕特里夏·阿奇森 Patricia Atchison (id:1427326)
       玛莎·摩尔 Maisha Moore (id:1427327)
       克里斯·苏扎 Chris Souza (id:1427328)
       余杰克 Jack Yu (id:1427329)

◎简  介
  米高梅定格动画版《亚当斯一家》组建团队,除此前确定的奥斯卡·伊萨克,查理兹·塞隆、艾莉森·珍妮、科洛·莫瑞兹、菲恩·伍法德、尼克·克罗尔、贝特·迈德尔也加盟。讲述一个诡异古怪的家庭与一个狡猾的真人秀主持人对峙,这个家庭同时也在为新生命的到来做准备,将举办一场亚当斯式的庆祝派对。                                       
                                    伊萨克和塞隆为戈麦斯&莫提西亚·亚当斯夫妇配音,莫瑞兹配Wednesday ,伍法德配Pugsley ,迈德尔配祖母,克罗尔配Fester叔叔,珍妮配反派Margaux Needler。                                       
                                    康拉德·弗农(《香肠派对》《马达加斯加3》《怪物史瑞克2》)和格雷格·蒂曼(《香肠派对》)执导,漫画家、该系列电视剧、电影的制作人查尔斯·亚当斯和Matt Lieberman、Pamela Pettler(《僵尸新娘》《怪兽屋》《机器人9号》)共同编写剧本,北美2019年10月11日北美上映...

◎获奖情况 (共2项)
  第47届动画安妮奖 (2020)
  最佳艺术指导(提名)
  最佳角色设计(提名)

  1. ##### MediaInfo ######
  2. General
  3. Unique ID                                : 205163221416257973584094124835792038645 (0x9A58FFC90824B776408180DDFD2D2AF5)
  4. Complete name                            : The.Addams.Family.2019.2160p.HDR.UHD.BluRay.DTS-HD.MA.5.1.x265-10bit-ENTHD.mkv
  5. Format                                   : Matroska
  6. Format version                           : Version 4
  7. File size                                : 10.6 GiB
  8. Duration                                 : 1 h 27 min
  9. Overall bit rate mode                    : Variable
  10. Overall bit rate                         : 17.4 Mb/s
  11. Encoded date                             : UTC 2022-06-19 22:07:49
  12. Writing application                      : mkvmerge v67.0.0 ('Under Stars') 64-bit
  13. Writing library                          : libebml v1.4.2 + libmatroska v1.6.4
  14. Video
  15. ID                                       : 1
  16. Format                                   : HEVC
  17. Format/Info                              : High Efficiency Video Coding
  18. Format profile                           : Main 10@L6.1@High
  19. HDR format                               : SMPTE ST 2086, HDR10 compatible
  20. Codec ID                                 : V_MPEGH/ISO/HEVC
  21. Duration                                 : 1 h 27 min
  22. Bit rate                                 : 12.9 Mb/s
  23. Width                                    : 3 840 pixels
  24. Height                                   : 2 072 pixels
  25. Display aspect ratio                     : 1.85:1
  26. Frame rate mode                          : Constant
  27. Frame rate                               : 23.976 (24000/1001/53354) FPS
  28. Color space                              : YUV
  29. Chroma subsampling                       : 4:2:0
  30. Bit depth                                : 10 bits
  31. Bits/(Pixel*Frame)                       : 0.068
  32. Stream size                              : 7.86 GiB (74%)
  33. Writing library                          : x265 - H.265/HEVC codec
  34. Default                                  : Yes
  35. Forced                                   : No
  36. Color range                              : Limited
  37. Color primaries                          : BT.2020
  38. Transfer characteristics                 : PQ
  39. Matrix coefficients                      : BT.2020 non-constant
  40. Mastering display color primaries        : BT.2020
  41. Mastering display luminance              : min: 0.0001 cd/m2, max: 1000 cd/m2
  42. Maximum Content Light Level              : 1000 cd/m2
  43. Audio
  44. ID                                       : 2
  45. Format                                   : DTS XLL
  46. Format/Info                              : Digital Theater Systems
  47. Commercial name                          : DTS-HD Master Audio
  48. Codec ID                                 : A_DTS
  49. Duration                                 : 1 h 27 min
  50. Bit rate mode                            : Variable
  51. Bit rate                                 : 4 470 kb/s
  52. Channel(s)                               : 6 channels
  53. Channel layout                           : C L R Ls Rs LFE
  54. Sampling rate                            : 48.0 kHz
  55. Frame rate                               : 93.750 FPS (512 SPF)
  56. Bit depth                                : 24 bits
  57. Compression mode                         : Lossless
  58. Stream size                              : 2.72 GiB (26%)
  59. Language                                 : English
  60. Default                                  : Yes
  61. Forced                                   : No
  62. Text #1
  63. ID                                       : 3
  64. Format                                   : PGS
  65. Muxing mode                              : zlib
  66. Codec ID                                 : S_HDMV/PGS
  67. Codec ID/Info                            : Picture based subtitle format used on BDs/HD-DVDs
  68. Duration                                 : 1 h 17 min
  69. Bit rate                                 : 48.6 kb/s
  70. Count of elements                        : 2154
  71. Stream size                              : 27.0 MiB (0%)
  72. Language                                 : English
  73. Default                                  : Yes
  74. Forced                                   : No
  75. Text #2
  76. ID                                       : 4
  77. Format                                   : PGS
  78. Muxing mode                              : zlib
  79. Codec ID                                 : S_HDMV/PGS
  80. Codec ID/Info                            : Picture based subtitle format used on BDs/HD-DVDs
  81. Duration                                 : 1 h 25 min
  82. Bit rate                                 : 29.3 kb/s
  83. Count of elements                        : 2478
  84. Stream size                              : 18.0 MiB (0%)
  85. Language                                 : Chinese
  86. Default                                  : No
  87. Forced                                   : No
  88. Text #3
  89. ID                                       : 5
  90. Format                                   : PGS
  91. Muxing mode                              : zlib
  92. Codec ID                                 : S_HDMV/PGS
  93. Codec ID/Info                            : Picture based subtitle format used on BDs/HD-DVDs
  94. Duration                                 : 1 h 25 min
  95. Bit rate                                 : 27.8 kb/s
  96. Count of elements                        : 2478
  97. Stream size                              : 17.0 MiB (0%)
  98. Language                                 : Chinese
  99. Default                                  : No
  100. Forced                                   : No
  101. Menu
  102. 00:00:00.000                             : :第 01 章
  103. 00:07:01.588                             : :第 02 章
  104. 00:14:12.143                             : :第 03 章
  105. 00:21:45.096                             : :第 04 章
  106. 00:30:30.914                             : :第 05 章
  107. 00:36:49.542                             : :第 06 章
  108. 00:44:48.146                             : :第 07 章
  109. 00:50:02.460                             : :第 08 章
  110. 00:58:13.868                             : :第 09 章
  111. 01:05:48.865                             : :第 10 章
  112. 01:13:51.639                             : :第 11 章
  113. 01:19:13.920                             : :第 12 章





此处一般会放置磁力链或种子下载链接,不过此链接需要注册会员才能看到,点击“立即注册”
磁力链下载【下载链接仅对注册会员开放,登陆后可见】
BT9527电影天堂 1、BT9527电影天堂提供的BT文件均来源于互联网抓取,只供网友学习交流、技术提升使用。
2、我们遵守BitTorrent点对点协议原则,任何版权问题请联系原资源发布商,我们不处理任何版权纠纷,谢谢!如有争议请联系邮箱:BT9527#hotmail.com(#换成@)
3、如果您发现某页面或地址有错误,请联系站长邮箱BT9527#hotmail.com(#换成@),我们会尽快处理。您的热心是对BT9527电影天堂最大的支持。
4、本站建议去正规影院观看电影以支持电影行业发展。
最新回复 (0)

你可以在 登录 or 注册 后,对此帖发表评论!

返回
发新帖