少年邦[中文字幕].Boys.State.2020.2160p.ATVP.WEB-DL.DDP5.1.Atmos.DV.MKV.x265-DVSUX 19.24GB

版主小s 5天前 56

◎译 名 少年邦 / 新生代玩转政治(港) / 新世代公民(台) / 男孩之州

◎片 名 Boys State

◎年 代 2020

◎产 地 美国

◎类 别 纪录片

◎语 言 英语

◎上映日期 2020-01-24(圣丹斯电影节) / 2020-08-14(美国)

◎IMDb链接 https://www.imdb.com/title/tt11095742/

◎豆瓣评分 7.8/10 (1200人评价)

◎豆瓣链接 https://movie.douban.com/subject/34907430/

◎片 长 105分钟

◎导 演 阿曼达·麦克拜恩 Amanda McBaine (id:1451174)

杰西·莫斯 Jesse Moss (id:1292601)

◎简 介

故事讲述来自得克萨斯州的1000个17岁男孩参加了从零开始的代议制政府的故事。

◎获奖情况 (共5项)

第36届圣丹斯电影节 (2020)

评审团大奖 纪录片

第73届黄金时段艾美奖 (2021)

最佳纪录/非虚构节目

第73届美国导演工会奖 (2021)

最佳纪录片导演(提名)

第92届美国国家评论协会奖 (2020)

五佳纪录片

第24届美国在线影评人协会奖 (2021)

最佳纪录片(提名)

  1. Video

  2. ID : 1

  3. Format : HEVC

  4. Format/Info : High Efficiency Video Coding

  5. Format profile : Main 10@L5@High

  6. HDR format : Dolby Vision, Version 1.0, dvhe.05.06, BL+RPU

  7. Codec ID : V_MPEGH/ISO/HEVC

  8. Duration : 1 h 49 min

  9. Bit rate : 24.4 Mb/s

  10. Width : 3 840 pixels

  11. Height : 1 608 pixels

  12. Display aspect ratio : 2.40:1

  13. Frame rate mode : Constant

  14. Frame rate : 23.976 (24000/1001/53354) FPS

  15. Color space : YUV

  16. Chroma subsampling : 4:2:0

  17. Bit depth : 10 bits

  18. Bits/(Pixel*Frame) : 0.165

  19. Stream size : 18.6 GiB (97%)

  20. Default : Yes

  21. Forced : No


  22. Audio

  23. ID : 2

  24. Format : E-AC-3 JOC

  25. Format/Info : Enhanced AC-3 with Joint Object Coding

  26. Commercial name : Dolby Digital Plus with Dolby Atmos

  27. Codec ID : A_EAC3

  28. Duration : 1 h 49 min

  29. Bit rate mode : Constant

  30. Bit rate : 768 kb/s

  31. Channel(s) : 6 channels

  32. Channel layout : L R C LFE Ls Rs

  33. Sampling rate : 48.0 kHz

  34. Frame rate : 31.250 FPS (1536 SPF)

  35. Compression mode : Lossy

  36. Stream size : 601 MiB (3%)

  37. Language : English

  38. Service kind : Complete Main

  39. Default : Yes

  40. Forced : No

  41. Complexity index : 16

  42. Number of dynamic objects : 15

  43. Bed channel count : 1 channel

  44. Bed channel configuration : LFE


  45. Text #1

  46. ID : 3

  47. Format : UTF-8

  48. Codec ID : S_TEXT/UTF8

  49. Codec ID/Info : UTF-8 Plain Text

  50. Duration : 1 h 17 min

  51. Bit rate : 0 b/s

  52. Count of elements : 10

  53. Stream size : 303 Bytes (0%)

  54. Title : English (forced)

  55. Language : English

  56. Default : No

  57. Forced : Yes


  58. Text #2

  59. ID : 4

  60. Format : UTF-8

  61. Codec ID : S_TEXT/UTF8

  62. Codec ID/Info : UTF-8 Plain Text

  63. Duration : 1 h 46 min

  64. Bit rate : 98 b/s

  65. Count of elements : 1791

  66. Stream size : 76.5 KiB (0%)

  67. Title : English

  68. Language : English

  69. Default : Yes

  70. Forced : No


  71. Text #3

  72. ID : 5

  73. Format : UTF-8

  74. Codec ID : S_TEXT/UTF8

  75. Codec ID/Info : UTF-8 Plain Text

  76. Duration : 1 h 46 min

  77. Bit rate : 106 b/s

  78. Count of elements : 1956

  79. Stream size : 83.0 KiB (0%)

  80. Title : English (SDH)

  81. Language : English

  82. Default : No

  83. Forced : No


  84. Text #4

  85. ID : 6

  86. Format : UTF-8

  87. Codec ID : S_TEXT/UTF8

  88. Codec ID/Info : UTF-8 Plain Text

  89. Duration : 1 h 48 min

  90. Bit rate : 140 b/s

  91. Count of elements : 1858

  92. Stream size : 112 KiB (0%)

  93. Title : ???????

  94. Language : Arabic

  95. Default : No

  96. Forced : No


  97. Text #5

  98. ID : 7

  99. Format : UTF-8

  100. Codec ID : S_TEXT/UTF8

  101. Codec ID/Info : UTF-8 Plain Text

  102. Duration : 1 h 48 min

  103. Bit rate : 129 b/s

  104. Count of elements : 1535

  105. Stream size : 103 KiB (0%)

  106. Title : български

  107. Language : Bulgarian

  108. Default : No

  109. Forced : No


  110. Text #6

  111. ID : 8

  112. Format : UTF-8

  113. Codec ID : S_TEXT/UTF8

  114. Codec ID/Info : UTF-8 Plain Text

  115. Duration : 1 h 48 min

  116. Bit rate : 84 b/s

  117. Count of elements : 1776

  118. Stream size : 67.2 KiB (0%)

  119. Title : ?e?tina

  120. Language : Czech

  121. Default : No

  122. Forced : No


  123. Text #7

  124. ID : 9

  125. Format : UTF-8

  126. Codec ID : S_TEXT/UTF8

  127. Codec ID/Info : UTF-8 Plain Text

  128. Duration : 1 h 48 min

  129. Bit rate : 75 b/s

  130. Count of elements : 1727

  131. Stream size : 59.9 KiB (0%)

  132. Title : dansk

  133. Language : Danish

  134. Default : No

  135. Forced : No


  136. Text #8

  137. ID : 10

  138. Format : UTF-8

  139. Codec ID : S_TEXT/UTF8

  140. Codec ID/Info : UTF-8 Plain Text

  141. Duration : 1 h 48 min

  142. Bit rate : 80 b/s

  143. Count of elements : 1767

  144. Stream size : 63.8 KiB (0%)

  145. Title : Deutsch

  146. Language : German

  147. Default : No

  148. Forced : No


  149. Text #9

  150. ID : 11

  151. Format : UTF-8

  152. Codec ID : S_TEXT/UTF8

  153. Codec ID/Info : UTF-8 Plain Text

  154. Duration : 1 h 48 min

  155. Bit rate : 150 b/s

  156. Count of elements : 1829

  157. Stream size : 120 KiB (0%)

  158. Title : Ελληνικ?

  159. Language : Greek

  160. Default : No

  161. Forced : No


  162. Text #10

  163. ID : 12

  164. Format : UTF-8

  165. Codec ID : S_TEXT/UTF8

  166. Codec ID/Info : UTF-8 Plain Text

  167. Duration : 1 h 48 min

  168. Bit rate : 89 b/s

  169. Count of elements : 1763

  170. Stream size : 71.4 KiB (0%)

  171. Title : Espa?ol (Espa?a)

  172. Language : Spanish

  173. Default : No

  174. Forced : No


  175. Text #11

  176. ID : 13

  177. Format : UTF-8

  178. Codec ID : S_TEXT/UTF8

  179. Codec ID/Info : UTF-8 Plain Text

  180. Duration : 1 h 48 min

  181. Bit rate : 81 b/s

  182. Count of elements : 1847

  183. Stream size : 65.2 KiB (0%)

  184. Title : Espa?ol (Latinoamérica)

  185. Language : Spanish

  186. Default : No

  187. Forced : No


  188. Text #12

  189. ID : 14

  190. Format : UTF-8

  191. Codec ID : S_TEXT/UTF8

  192. Codec ID/Info : UTF-8 Plain Text

  193. Duration : 1 h 48 min

  194. Bit rate : 82 b/s

  195. Count of elements : 1593

  196. Stream size : 66.0 KiB (0%)

  197. Title : eesti

  198. Language : Estonian

  199. Default : No

  200. Forced : No


  201. Text #13

  202. ID : 15

  203. Format : UTF-8

  204. Codec ID : S_TEXT/UTF8

  205. Codec ID/Info : UTF-8 Plain Text

  206. Duration : 1 h 48 min

  207. Bit rate : 71 b/s

  208. Count of elements : 1814

  209. Stream size : 57.3 KiB (0%)

  210. Title : Suomi

  211. Language : Finnish

  212. Default : No

  213. Forced : No


  214. Text #14

  215. ID : 16

  216. Format : UTF-8

  217. Codec ID : S_TEXT/UTF8

  218. Codec ID/Info : UTF-8 Plain Text

  219. Duration : 1 h 48 min

  220. Bit rate : 81 b/s

  221. Count of elements : 1772

  222. Stream size : 64.9 KiB (0%)

  223. Title : Fran?ais (France)

  224. Language : French

  225. Default : No

  226. Forced : No


  227. Text #15

  228. ID : 17

  229. Format : UTF-8

  230. Codec ID : S_TEXT/UTF8

  231. Codec ID/Info : UTF-8 Plain Text

  232. Duration : 1 h 48 min

  233. Bit rate : 81 b/s

  234. Count of elements : 1772

  235. Stream size : 64.9 KiB (0%)

  236. Title : Fran?ais (Canada)

  237. Language : French

  238. Default : No

  239. Forced : No


  240. Text #16

  241. ID : 18

  242. Format : UTF-8

  243. Codec ID : S_TEXT/UTF8

  244. Codec ID/Info : UTF-8 Plain Text

  245. Duration : 1 h 48 min

  246. Bit rate : 125 b/s

  247. Count of elements : 1858

  248. Stream size : 100 KiB (0%)

  249. Title : ?????

  250. Language : Hebrew

  251. Default : No

  252. Forced : No


  253. Text #17

  254. ID : 19

  255. Format : UTF-8

  256. Codec ID : S_TEXT/UTF8

  257. Codec ID/Info : UTF-8 Plain Text

  258. Duration : 1 h 48 min

  259. Bit rate : 234 b/s

  260. Count of elements : 1860

  261. Stream size : 187 KiB (0%)

  262. Title : ??????

  263. Language : Hindi

  264. Default : No

  265. Forced : No


  266. Text #18

  267. ID : 20

  268. Format : UTF-8

  269. Codec ID : S_TEXT/UTF8

  270. Codec ID/Info : UTF-8 Plain Text

  271. Duration : 1 h 48 min

  272. Bit rate : 86 b/s

  273. Count of elements : 1597

  274. Stream size : 68.9 KiB (0%)

  275. Title : magyar

  276. Language : Hungarian

  277. Default : No

  278. Forced : No


  279. Text #19

  280. ID : 21

  281. Format : UTF-8

  282. Codec ID : S_TEXT/UTF8

  283. Codec ID/Info : UTF-8 Plain Text

  284. Duration : 1 h 48 min

  285. Bit rate : 84 b/s

  286. Count of elements : 1843

  287. Stream size : 67.2 KiB (0%)

  288. Title : Bahasa Indonesia

  289. Language : Indonesian

  290. Default : No

  291. Forced : No


  292. Text #20

  293. ID : 22

  294. Format : UTF-8

  295. Codec ID : S_TEXT/UTF8

  296. Codec ID/Info : UTF-8 Plain Text

  297. Duration : 1 h 48 min

  298. Bit rate : 73 b/s

  299. Count of elements : 1626

  300. Stream size : 58.8 KiB (0%)

  301. Title : Italiano

  302. Language : Italian

  303. Default : No

  304. Forced : No


  305. Text #21

  306. ID : 23

  307. Format : UTF-8

  308. Codec ID : S_TEXT/UTF8

  309. Codec ID/Info : UTF-8 Plain Text

  310. Duration : 1 h 48 min

  311. Bit rate : 68 b/s

  312. Count of elements : 1510

  313. Stream size : 54.7 KiB (0%)

  314. Title : 日本語

  315. Language : Japanese

  316. Default : No

  317. Forced : No


  318. Text #22

  319. ID : 24

  320. Format : UTF-8

  321. Codec ID : S_TEXT/UTF8

  322. Codec ID/Info : UTF-8 Plain Text

  323. Duration : 1 h 48 min

  324. Bit rate : 94 b/s

  325. Count of elements : 1858

  326. Stream size : 75.0 KiB (0%)

  327. Title : lietuvi?

  328. Language : Lithuanian

  329. Default : No

  330. Forced : No


  331. Text #23

  332. ID : 25

  333. Format : UTF-8

  334. Codec ID : S_TEXT/UTF8

  335. Codec ID/Info : UTF-8 Plain Text

  336. Duration : 1 h 48 min

  337. Bit rate : 93 b/s

  338. Count of elements : 1792

  339. Stream size : 74.3 KiB (0%)

  340. Title : latvie?u

  341. Language : Latvian

  342. Default : No

  343. Forced : No


  344. Text #24

  345. ID : 26

  346. Format : UTF-8

  347. Codec ID : S_TEXT/UTF8

  348. Codec ID/Info : UTF-8 Plain Text

  349. Duration : 1 h 48 min

  350. Bit rate : 98 b/s

  351. Count of elements : 1844

  352. Stream size : 78.2 KiB (0%)

  353. Title : Bahasa Melayu

  354. Language : Malay

  355. Default : No

  356. Forced : No


  357. Text #25

  358. ID : 27

  359. Format : UTF-8

  360. Codec ID : S_TEXT/UTF8

  361. Codec ID/Info : UTF-8 Plain Text

  362. Duration : 1 h 48 min

  363. Bit rate : 78 b/s

  364. Count of elements : 1420

  365. Stream size : 62.8 KiB (0%)

  366. Title : Nederlands

  367. Language : Dutch

  368. Default : No

  369. Forced : No


  370. Text #26

  371. ID : 28

  372. Format : UTF-8

  373. Codec ID : S_TEXT/UTF8

  374. Codec ID/Info : UTF-8 Plain Text

  375. Duration : 1 h 48 min

  376. Bit rate : 88 b/s

  377. Count of elements : 1795

  378. Stream size : 70.4 KiB (0%)

  379. Title : norsk

  380. Language : Norwegian

  381. Default : No

  382. Forced : No


  383. Text #27

  384. ID : 29

  385. Format : UTF-8

  386. Codec ID : S_TEXT/UTF8

  387. Codec ID/Info : UTF-8 Plain Text

  388. Duration : 1 h 48 min

  389. Bit rate : 82 b/s

  390. Count of elements : 1830

  391. Stream size : 65.9 KiB (0%)

  392. Title : polski

  393. Language : Polish

  394. Default : No

  395. Forced : No


  396. Text #28

  397. ID : 30

  398. Format : UTF-8

  399. Codec ID : S_TEXT/UTF8

  400. Codec ID/Info : UTF-8 Plain Text

  401. Duration : 1 h 48 min

  402. Bit rate : 86 b/s

  403. Count of elements : 1817

  404. Stream size : 69.0 KiB (0%)

  405. Title : Português

  406. Language : Portuguese

  407. Default : No

  408. Forced : No


  409. Text #29

  410. ID : 31

  411. Format : UTF-8

  412. Codec ID : S_TEXT/UTF8

  413. Codec ID/Info : UTF-8 Plain Text

  414. Duration : 1 h 48 min

  415. Bit rate : 83 b/s

  416. Count of elements : 1800

  417. Stream size : 66.2 KiB (0%)

  418. Title : Português (Brasil)

  419. Language : Portuguese

  420. Default : No

  421. Forced : No


  422. Text #30

  423. ID : 32

  424. Format : UTF-8

  425. Codec ID : S_TEXT/UTF8

  426. Codec ID/Info : UTF-8 Plain Text

  427. Duration : 1 h 48 min

  428. Bit rate : 139 b/s

  429. Count of elements : 1761

  430. Stream size : 111 KiB (0%)

  431. Title : Русский

  432. Language : Russian

  433. Default : No

  434. Forced : No


  435. Text #31

  436. ID : 33

  437. Format : UTF-8

  438. Codec ID : S_TEXT/UTF8

  439. Codec ID/Info : UTF-8 Plain Text

  440. Duration : 1 h 48 min

  441. Bit rate : 82 b/s

  442. Count of elements : 1796

  443. Stream size : 66.2 KiB (0%)

  444. Title : Sloven?ina

  445. Language : Slovak

  446. Default : No

  447. Forced : No


  448. Text #32

  449. ID : 34

  450. Format : UTF-8

  451. Codec ID : S_TEXT/UTF8

  452. Codec ID/Info : UTF-8 Plain Text

  453. Duration : 1 h 48 min

  454. Bit rate : 71 b/s

  455. Count of elements : 1770

  456. Stream size : 56.8 KiB (0%)

  457. Title : sloven??ina

  458. Language : Slovenian

  459. Default : No

  460. Forced : No


  461. Text #33

  462. ID : 35

  463. Format : UTF-8

  464. Codec ID : S_TEXT/UTF8

  465. Codec ID/Info : UTF-8 Plain Text

  466. Duration : 1 h 48 min

  467. Bit rate : 87 b/s

  468. Count of elements : 1834

  469. Stream size : 69.5 KiB (0%)

  470. Title : Svenska

  471. Language : Swedish

  472. Default : No

  473. Forced : No


  474. Text #34

  475. ID : 36

  476. Format : UTF-8

  477. Codec ID : S_TEXT/UTF8

  478. Codec ID/Info : UTF-8 Plain Text

  479. Duration : 1 h 48 min

  480. Bit rate : 298 b/s

  481. Count of elements : 1858

  482. Stream size : 238 KiB (0%)

  483. Title : ?????

  484. Language : Tamil

  485. Default : No

  486. Forced : No


  487. Text #35

  488. ID : 37

  489. Format : UTF-8

  490. Codec ID : S_TEXT/UTF8

  491. Codec ID/Info : UTF-8 Plain Text

  492. Duration : 1 h 48 min

  493. Bit rate : 247 b/s

  494. Count of elements : 1858

  495. Stream size : 198 KiB (0%)

  496. Title : ??????

  497. Language : Telugu

  498. Default : No

  499. Forced : No


  500. Text #36

  501. ID : 38

  502. Format : UTF-8

  503. Codec ID : S_TEXT/UTF8

  504. Codec ID/Info : UTF-8 Plain Text

  505. Duration : 1 h 48 min

  506. Bit rate : 235 b/s

  507. Count of elements : 1858

  508. Stream size : 188 KiB (0%)

  509. Title : ???

  510. Language : Thai

  511. Default : No

  512. Forced : No


  513. Text #37

  514. ID : 39

  515. Format : UTF-8

  516. Codec ID : S_TEXT/UTF8

  517. Codec ID/Info : UTF-8 Plain Text

  518. Duration : 1 h 48 min

  519. Bit rate : 83 b/s

  520. Count of elements : 1684

  521. Stream size : 66.6 KiB (0%)

  522. Title : Türk?e

  523. Language : Turkish

  524. Default : No

  525. Forced : No


  526. Text #38

  527. ID : 40

  528. Format : UTF-8

  529. Codec ID : S_TEXT/UTF8

  530. Codec ID/Info : UTF-8 Plain Text

  531. Duration : 1 h 48 min

  532. Bit rate : 145 b/s

  533. Count of elements : 1857

  534. Stream size : 116 KiB (0%)

  535. Title : укра?нська

  536. Language : Ukrainian

  537. Default : No

  538. Forced : No


  539. Text #39

  540. ID : 41

  541. Format : UTF-8

  542. Codec ID : S_TEXT/UTF8

  543. Codec ID/Info : UTF-8 Plain Text

  544. Duration : 1 h 48 min

  545. Bit rate : 127 b/s

  546. Count of elements : 1838

  547. Stream size : 102 KiB (0%)

  548. Title : Ti?ng Vi?t

  549. Language : Vietnamese

  550. Default : No

  551. Forced : No


  552. Text #40

  553. ID : 42

  554. Format : UTF-8

  555. Codec ID : S_TEXT/UTF8

  556. Codec ID/Info : UTF-8 Plain Text

  557. Duration : 1 h 48 min

  558. Bit rate : 83 b/s

  559. Count of elements : 1860

  560. Stream size : 66.5 KiB (0%)

  561. Title : 廣東話

  562. Language : Chinese

  563. Default : No

  564. Forced : No


  565. Text #41

  566. ID : 43

  567. Format : UTF-8

  568. Codec ID : S_TEXT/UTF8

  569. Codec ID/Info : UTF-8 Plain Text

  570. Duration : 1 h 48 min

  571. Bit rate : 79 b/s

  572. Count of elements : 1860

  573. Stream size : 63.2 KiB (0%)

  574. Title : 中文(繁體)

  575. Language : Chinese

  576. Default : No

  577. Forced : No


  578. Text #42

  579. ID : 44

  580. Format : UTF-8

  581. Codec ID : S_TEXT/UTF8

  582. Codec ID/Info : UTF-8 Plain Text

  583. Duration : 1 h 48 min

  584. Bit rate : 81 b/s

  585. Count of elements : 1858

  586. Stream size : 65.2 KiB (0%)

  587. Title : 中文(简体)

  588. Language : Chinese

  589. Default : No

  590. Forced : No

复制代码

  


磁力链:
  • magnet:?xt=urn:btih:F79DCD7DCF94703A9BD25673E16671A901E0BF88
上传的附件:
BT9527电影天堂 1、BT9527电影天堂提供的BT文件均来源于互联网抓取,只供网友学习交流、技术提升使用。
2、我们遵守BitTorrent点对点协议原则,任何版权问题请联系原资源发布商,我们不处理任何版权纠纷,谢谢!如有争议请联系邮箱:BT9527#hotmail.com(#换成@)
3、如果您发现某页面或地址有错误,请联系站长邮箱BT9527#hotmail.com(#换成@),我们会尽快处理。您的热心是对BT9527电影天堂最大的支持。
4、本站建议去正规影院观看电影以支持电影行业发展。
最新回复 (0)

你可以在 登录 or 注册 后,对此帖发表评论!

返回
发新帖