青春爱欲吻[中文字幕].Angus.Thongs.and.Perfect.Snogging.2008.1080p.NF.WEBRip.DDP5.1.x264-NOGRP 4.51GB

版主小s 3月前 452

◎译 名 青春爱欲吻 / 辣妹日记

◎片 名 Angus, Thongs and Perfect Snogging

◎年 代 2008

◎产 地 美国 / 德国 / 英国

◎类 别 剧情 / 喜剧

◎语 言 英语

◎上映日期 2008-07-25

◎IMDb链接 https://www.imdb.com/title/tt0963743/

◎豆瓣评分 7.1/10 (36640人评价)

◎豆瓣链接 https://movie.douban.com/subject/3001472/

◎片 长 UK: 100 分钟

◎导 演 顾伦德·查达哈 Gurinder Chadha (id:1014072)

◎编 剧 保罗·梅达·贝哲斯 Paul Mayeda Berges (id:1050538)

顾伦德·查达哈 Gurinder Chadha (id:1014072)

威尔·麦克罗伯 Will McRobb (id:1291725)

◎演 员 乔治娅·格洛梅 Georgia Groome (id:1004649)

亚伦·泰勒-约翰逊 Aaron Taylor-Johnson (id:1017887)

埃莉诺·汤姆林森 Eleanor Tomlinson (id:1275043)

西恩·博克 Sean Bourke (id:1313811)

托米·巴斯托 Tommy Bastow (id:1049881)

利亚姆·海斯 Liam Hess (id:1000403)

克里斯托弗·麦克马伦 Christopher McMullen (id:1388103)

乔治娅·汉修 Georgia Henshaw (id:1400268)

艾伦·戴维斯 Alan Davies (id:1032170)

金伯莉·尼克松 Kimberley Nixon (id:1027289)

乔比·塔尔博特 Joby Talbot (id:1298867)

迪克·蒲波 Dick Pope (id:1276566)

Justin Krish Justin Krish (id:1288641)

吉尔·泰勒 Jill Taylor (id:1298993)

◎简 介

14岁的小女孩乔治娅·尼克尔森(乔治娅·格洛梅 Georgia Groome 饰)刚刚步入青春期,她的叛逆和倔强随之而生。这个年龄的她不再为了糖果和洋娃娃欢呼雀跃,虽然父母仍旧将其看作一个小孩子,但她已经开始为了朦胧的爱情怦然心动了。升入中学,一众死党感受到来自自身和外界的冲击,她们讨论乳房、初恋、接吻,一切都让懵懂的女孩们激动不已。与此同时,乔治娅迷上了阳光帅气的男孩罗比(亚伦·约翰逊 Aaron Johnson 饰),从此每一天都变得多姿多彩起来……

本片根据英国作家露易丝·任尼森(Louise Rennison)系列日记体小说的“Angus, Thongs and Full-Frontal Snogging”和“It’s Okay, I’m Wearing Really Big Knickers”改编,并荣获2008年巴斯特国际儿童电影节观众奖...

  1. Video

  2. ID : 1

  3. Format : AVC

  4. Format/Info : Advanced Video Codec

  5. Format profile : Main@L4

  6. Format settings : CABAC / 3 Ref Frames

  7. Format settings, CABAC : Yes

  8. Format settings, Reference frames : 3 frames

  9. Codec ID : V_MPEG4/ISO/AVC

  10. Duration : 1 h 40 min

  11. Bit rate mode : Variable

  12. Bit rate : 5 800 kb/s

  13. Maximum bit rate : 8 700 kb/s

  14. Width : 1 920 pixels

  15. Height : 1 080 pixels

  16. Display aspect ratio : 16:9

  17. Frame rate mode : Constant

  18. Frame rate : 23.976 (24000/1001/53354) FPS

  19. Color space : YUV

  20. Chroma subsampling : 4:2:0

  21. Bit depth : 8 bits

  22. Scan type : Progressive

  23. Bits/(Pixel*Frame) : 0.117

  24. Stream size : 4.05 GiB (90%)

  25. Writing library : x264 core 118

  26. Encoding settings : cabac=1 / ref=3 / deblock=1:0:0 / analyse=0x1:0x111 / me=umh / subme=10 / psy=1 / psy_rd=1.00:0.00 / mixed_ref=1 / me_range=24 / chroma_me=1 / trellis=2 / 8x8dct=0 / cqm=0 / deadzone=21,11 / fast_pskip=1 / chroma_qp_offset=-2 / threads=8 / sliced_threads=0 / nr=0 / decimate=1 / interlaced=0 / NTMzNTQ= / bluray_compat=0 / constrained_intra=0 / bframes=2 / b_pyramid=0 / b_adapt=2 / b_bias=0 / direct=3 / weightb=1 / open_gop=0 / weightp=2 / keyint=48 / keyint_min=25 / scenecut=0 / intra_refresh=0 / rc_lookahead=0 / rc=2pass / mbtree=1 / bitrate=5800 / ratetol=1.0 / qcomp=0.50 / qpmin=6 / qpmax=51 / qpstep=4 / cplxblur=20.0 / qblur=0.5 / vbv_maxrate=8700 / vbv_bufsize=11600 / nal_hrd=vbr / NTMzNTQ=LmsMAP37EqsCpk / ip_ratio=1.40 / aq=1:1.00

  27. Default : Yes

  28. Forced : No


  29. Audio

  30. ID : 2

  31. Format : E-AC-3

  32. Format/Info : Enhanced AC-3

  33. Commercial name : Dolby Digital Plus

  34. Codec ID : A_EAC3

  35. Duration : 1 h 40 min

  36. Bit rate mode : Constant

  37. Bit rate : 640 kb/s

  38. Channel(s) : 6 channels

  39. Channel layout : L R C LFE Ls Rs

  40. Sampling rate : 48.0 kHz

  41. Frame rate : 31.250 FPS (1536 SPF)

  42. Compression mode : Lossy

  43. Stream size : 461 MiB (10%)

  44. Title : English

  45. Language : English

  46. Service kind : Complete Main

  47. Default : Yes

  48. Forced : No


  49. Text #1

  50. ID : 3

  51. Format : UTF-8

  52. Codec ID : S_TEXT/UTF8

  53. Codec ID/Info : UTF-8 Plain Text

  54. Duration : 1 h 39 min

  55. Bit rate : 78 b/s

  56. Count of elements : 3172

  57. Stream size : 57.0 KiB (0%)

  58. Title : English [SDH]

  59. Language : English

  60. Default : No

  61. Forced : No


  62. Text #2

  63. ID : 4

  64. Format : UTF-8

  65. Codec ID : S_TEXT/UTF8

  66. Codec ID/Info : UTF-8 Plain Text

  67. Duration : 1 h 22 min

  68. Bit rate : 0 b/s

  69. Count of elements : 3

  70. Stream size : 81.0 Bytes (0%)

  71. Title : Castilian [Forced]

  72. Language : Spanish

  73. Default : No

  74. Forced : Yes


  75. Text #3

  76. ID : 5

  77. Format : UTF-8

  78. Codec ID : S_TEXT/UTF8

  79. Codec ID/Info : UTF-8 Plain Text

  80. Duration : 1 h 33 min

  81. Bit rate : 67 b/s

  82. Count of elements : 1172

  83. Stream size : 46.4 KiB (0%)

  84. Title : Castilian [Full]

  85. Language : Spanish

  86. Default : No

  87. Forced : No


  88. Text #4

  89. ID : 6

  90. Format : UTF-8

  91. Codec ID : S_TEXT/UTF8

  92. Codec ID/Info : UTF-8 Plain Text

  93. Duration : 1 h 2 min

  94. Bit rate : 0 b/s

  95. Count of elements : 3

  96. Stream size : 112 Bytes (0%)

  97. Title : Spanish [Forced]

  98. Language : Spanish

  99. Default : No

  100. Forced : Yes


  101. Text #5

  102. ID : 7

  103. Format : UTF-8

  104. Codec ID : S_TEXT/UTF8

  105. Codec ID/Info : UTF-8 Plain Text

  106. Duration : 1 h 33 min

  107. Bit rate : 66 b/s

  108. Count of elements : 1172

  109. Stream size : 45.7 KiB (0%)

  110. Title : Spanish [Full]

  111. Language : Spanish

  112. Default : No

  113. Forced : No


  114. Text #6

  115. ID : 8

  116. Format : UTF-8

  117. Codec ID : S_TEXT/UTF8

  118. Codec ID/Info : UTF-8 Plain Text

  119. Duration : 1 h 33 min

  120. Bit rate : 70 b/s

  121. Count of elements : 1167

  122. Stream size : 48.5 KiB (0%)

  123. Title : French [Full]

  124. Language : French

  125. Default : No

  126. Forced : No


  127. Text #7

  128. ID : 9

  129. Format : UTF-8

  130. Codec ID : S_TEXT/UTF8

  131. Codec ID/Info : UTF-8 Plain Text

  132. Duration : 1 h 2 min

  133. Bit rate : 0 b/s

  134. Count of elements : 4

  135. Stream size : 91.0 Bytes (0%)

  136. Title : German [Forced]

  137. Language : German

  138. Default : No

  139. Forced : Yes


  140. Text #8

  141. ID : 10

  142. Format : UTF-8

  143. Codec ID : S_TEXT/UTF8

  144. Codec ID/Info : UTF-8 Plain Text

  145. Duration : 1 h 33 min

  146. Bit rate : 68 b/s

  147. Count of elements : 1147

  148. Stream size : 47.3 KiB (0%)

  149. Title : German [Full]

  150. Language : German

  151. Default : No

  152. Forced : No


  153. Text #9

  154. ID : 11

  155. Format : UTF-8

  156. Codec ID : S_TEXT/UTF8

  157. Codec ID/Info : UTF-8 Plain Text

  158. Duration : 30 min 41 s

  159. Bit rate : 0 b/s

  160. Count of elements : 2

  161. Stream size : 71.0 Bytes (0%)

  162. Title : Italian [Forced]

  163. Language : Italian

  164. Default : No

  165. Forced : Yes


  166. Text #10

  167. ID : 12

  168. Format : UTF-8

  169. Codec ID : S_TEXT/UTF8

  170. Codec ID/Info : UTF-8 Plain Text

  171. Duration : 1 h 33 min

  172. Bit rate : 68 b/s

  173. Count of elements : 1171

  174. Stream size : 47.2 KiB (0%)

  175. Title : Italian [Full]

  176. Language : Italian

  177. Default : No

  178. Forced : No


  179. Text #11

  180. ID : 13

  181. Format : UTF-8

  182. Codec ID : S_TEXT/UTF8

  183. Codec ID/Info : UTF-8 Plain Text

  184. Duration : 1 h 33 min

  185. Bit rate : 67 b/s

  186. Count of elements : 1171

  187. Stream size : 46.1 KiB (0%)

  188. Title : Portuguese [Full]

  189. Language : Portuguese

  190. Default : No

  191. Forced : No


  192. Text #12

  193. ID : 14

  194. Format : UTF-8

  195. Codec ID : S_TEXT/UTF8

  196. Codec ID/Info : UTF-8 Plain Text

  197. Duration : 1 h 31 min

  198. Bit rate : 0 b/s

  199. Count of elements : 8

  200. Stream size : 271 Bytes (0%)

  201. Title : Brazilian Portuguese [Forced]

  202. Language : Portuguese

  203. Default : No

  204. Forced : Yes


  205. Text #13

  206. ID : 15

  207. Format : UTF-8

  208. Codec ID : S_TEXT/UTF8

  209. Codec ID/Info : UTF-8 Plain Text

  210. Duration : 1 h 33 min

  211. Bit rate : 63 b/s

  212. Count of elements : 1172

  213. Stream size : 43.7 KiB (0%)

  214. Title : Brazilian Portuguese [Full]

  215. Language : Portuguese

  216. Default : No

  217. Forced : No


  218. Text #14

  219. ID : 16

  220. Format : UTF-8

  221. Codec ID : S_TEXT/UTF8

  222. Codec ID/Info : UTF-8 Plain Text

  223. Duration : 1 h 35 min

  224. Bit rate : 59 b/s

  225. Count of elements : 1092

  226. Stream size : 41.5 KiB (0%)

  227. Title : Swedish [Full]

  228. Language : Swedish

  229. Default : No

  230. Forced : No


  231. Text #15

  232. ID : 17

  233. Format : UTF-8

  234. Codec ID : S_TEXT/UTF8

  235. Codec ID/Info : UTF-8 Plain Text

  236. Duration : 1 h 35 min

  237. Bit rate : 56 b/s

  238. Count of elements : 1089

  239. Stream size : 39.5 KiB (0%)

  240. Title : Danish [Full]

  241. Language : Danish

  242. Default : No

  243. Forced : No


  244. Text #16

  245. ID : 18

  246. Format : UTF-8

  247. Codec ID : S_TEXT/UTF8

  248. Codec ID/Info : UTF-8 Plain Text

  249. Duration : 1 h 33 min

  250. Bit rate : 61 b/s

  251. Count of elements : 1171

  252. Stream size : 42.4 KiB (0%)

  253. Title : Finnish [Full]

  254. Language : Finnish

  255. Default : No

  256. Forced : No


  257. Text #17

  258. ID : 19

  259. Format : UTF-8

  260. Codec ID : S_TEXT/UTF8

  261. Codec ID/Info : UTF-8 Plain Text

  262. Duration : 1 h 39 min

  263. Bit rate : 65 b/s

  264. Count of elements : 1144

  265. Stream size : 47.9 KiB (0%)

  266. Title : Dutch [Full]

  267. Language : Dutch

  268. Default : No

  269. Forced : No


  270. Text #18

  271. ID : 20

  272. Format : UTF-8

  273. Codec ID : S_TEXT/UTF8

  274. Codec ID/Info : UTF-8 Plain Text

  275. Duration : 1 h 35 min

  276. Bit rate : 52 b/s

  277. Count of elements : 1090

  278. Stream size : 36.3 KiB (0%)

  279. Title : Norwegian [Full]

  280. Language : Norwegian

  281. Default : No

  282. Forced : No


  283. Text #19

  284. ID : 21

  285. Format : UTF-8

  286. Codec ID : S_TEXT/UTF8

  287. Codec ID/Info : UTF-8 Plain Text

  288. Duration : 1 h 33 min

  289. Bit rate : 79 b/s

  290. Count of elements : 1170

  291. Stream size : 54.7 KiB (0%)

  292. Title : Icelandic [Full]

  293. Language : Icelandic

  294. Default : No

  295. Forced : No


  296. Text #20

  297. ID : 22

  298. Format : UTF-8

  299. Codec ID : S_TEXT/UTF8

  300. Codec ID/Info : UTF-8 Plain Text

  301. Duration : 1 h 39 min

  302. Bit rate : 164 b/s

  303. Count of elements : 1185

  304. Stream size : 120 KiB (0%)

  305. Title : Hindi [Full]

  306. Language : Hindi

  307. Default : No

  308. Forced : No


  309. Text #21

  310. ID : 23

  311. Format : UTF-8

  312. Codec ID : S_TEXT/UTF8

  313. Codec ID/Info : UTF-8 Plain Text

  314. Duration : 1 h 33 min

  315. Bit rate : 67 b/s

  316. Count of elements : 1150

  317. Stream size : 46.6 KiB (0%)

  318. Title : Indonesian [Full]

  319. Language : Indonesian

  320. Default : No

  321. Forced : No


  322. Text #22

  323. ID : 24

  324. Format : UTF-8

  325. Codec ID : S_TEXT/UTF8

  326. Codec ID/Info : UTF-8 Plain Text

  327. Duration : 1 h 39 min

  328. Bit rate : 64 b/s

  329. Count of elements : 1161

  330. Stream size : 47.3 KiB (0%)

  331. Title : Malay [Full]

  332. Language : Malay

  333. Default : No

  334. Forced : No


  335. Text #23

  336. ID : 25

  337. Format : UTF-8

  338. Codec ID : S_TEXT/UTF8

  339. Codec ID/Info : UTF-8 Plain Text

  340. Duration : 1 h 33 min

  341. Bit rate : 83 b/s

  342. Count of elements : 1183

  343. Stream size : 57.5 KiB (0%)

  344. Title : Vietnamese [Full]

  345. Language : Vietnamese

  346. Default : No

  347. Forced : No


  348. Text #24

  349. ID : 26

  350. Format : UTF-8

  351. Codec ID : S_TEXT/UTF8

  352. Codec ID/Info : UTF-8 Plain Text

  353. Duration : 1 h 21 min

  354. Bit rate : 1 b/s

  355. Count of elements : 16

  356. Stream size : 639 Bytes (0%)

  357. Title : Thai [Forced]

  358. Language : Thai

  359. Default : No

  360. Forced : Yes


  361. Text #25

  362. ID : 27

  363. Format : UTF-8

  364. Codec ID : S_TEXT/UTF8

  365. Codec ID/Info : UTF-8 Plain Text

  366. Duration : 1 h 33 min

  367. Bit rate : 155 b/s

  368. Count of elements : 1162

  369. Stream size : 107 KiB (0%)

  370. Title : Thai [Full]

  371. Language : Thai

  372. Default : No

  373. Forced : No


  374. Text #26

  375. ID : 28

  376. Format : UTF-8

  377. Codec ID : S_TEXT/UTF8

  378. Codec ID/Info : UTF-8 Plain Text

  379. Duration : 1 h 33 min

  380. Bit rate : 71 b/s

  381. Count of elements : 1185

  382. Stream size : 49.2 KiB (0%)

  383. Title : Korean [Full]

  384. Language : Korean

  385. Default : No

  386. Forced : No


  387. Text #27

  388. ID : 29

  389. Format : UTF-8

  390. Codec ID : S_TEXT/UTF8

  391. Codec ID/Info : UTF-8 Plain Text

  392. Duration : 1 h 35 min

  393. Bit rate : 56 b/s

  394. Count of elements : 1144

  395. Stream size : 39.6 KiB (0%)

  396. Title : Chinese (Simplified) [Full]

  397. Language : Chinese

  398. Default : No

  399. Forced : No


  400. Text #28

  401. ID : 30

  402. Format : UTF-8

  403. Codec ID : S_TEXT/UTF8

  404. Codec ID/Info : UTF-8 Plain Text

  405. Duration : 1 h 35 min

  406. Bit rate : 56 b/s

  407. Count of elements : 1174

  408. Stream size : 39.4 KiB (0%)

  409. Title : Chinese (Traditional) [Full]

  410. Language : Chinese

  411. Default : No

  412. Forced : No


  413. Text #29

  414. ID : 31

  415. Format : UTF-8

  416. Codec ID : S_TEXT/UTF8

  417. Codec ID/Info : UTF-8 Plain Text

  418. Duration : 49 min 1 s

  419. Bit rate : 0 b/s

  420. Count of elements : 9

  421. Stream size : 254 Bytes (0%)

  422. Title : Japanese [Forced]

  423. Language : Japanese

  424. Default : No

  425. Forced : Yes


  426. Text #30

  427. ID : 32

  428. Format : UTF-8

  429. Codec ID : S_TEXT/UTF8

  430. Codec ID/Info : UTF-8 Plain Text

  431. Duration : 1 h 33 min

  432. Bit rate : 54 b/s

  433. Count of elements : 1261

  434. Stream size : 37.2 KiB (0%)

  435. Title : Japanese [Full]

  436. Language : Japanese

  437. Default : No

  438. Forced : No

复制代码

  


磁力链:
  • magnet:?xt=urn:btih:C28F5BAE635622352B231BA5B6BC1BA354B8D045
上传的附件:
BT9527电影天堂 1、BT9527电影天堂提供的BT文件均来源于互联网抓取,只供网友学习交流、技术提升使用。
2、我们遵守BitTorrent点对点协议原则,任何版权问题请联系原资源发布商,我们不处理任何版权纠纷,谢谢!如有争议请联系邮箱:BT9527#hotmail.com(#换成@)
3、如果您发现某页面或地址有错误,请联系站长邮箱BT9527#hotmail.com(#换成@),我们会尽快处理。您的热心是对BT9527电影天堂最大的支持。
4、本站建议去正规影院观看电影以支持电影行业发展。
最新回复 (0)

你可以在 登录 or 注册 后,对此帖发表评论!

返回