大寒[中文字幕].The.Big.Chill.1983.2160p.AMZN.WEB-DL.x265.8bit.SDR.DTS-HD.MA.5.1-NOGRP 14.50GB

版主小s 11天前 92

◎译 名 大寒 / 山水又相逢

◎片 名 The Big Chill

◎年 代 1983

◎产 地 美国

◎类 别 剧情 / 喜剧

◎语 言 英语

◎上映日期 1983-09-09

◎IMDb链接 https://www.imdb.com/title/tt0085244/

◎豆瓣评分 6.8/10 (813人评价)

◎豆瓣链接 https://movie.douban.com/subject/1293796/

◎片 长 105 分钟

◎导 演 劳伦斯·卡斯丹 Lawrence Kasdan (id:1014071)

◎编 剧 劳伦斯·卡斯丹 Lawrence Kasdan (id:1014071)

芭芭拉·贝内德克 Barbara Benedek (id:1278329)

◎演 员 格伦·克洛斯 Glenn Close (id:1031875)

威廉·赫特 William Hurt (id:1031849)

凯文·克莱恩 Kevin Kline (id:1040531)

杰夫·高布伦 Jeff Goldblum (id:1025109)

汤姆·贝伦杰 Tom Berenger (id:1019024)

玛丽·凯·普莱斯 Mary Kay Place (id:1027844)

梅格·提利 Meg Tilly (id:1004666)

乔贝兹·威廉姆斯 JoBeth Williams (id:1036479)

乔恩·卡斯丹 Jon Kasden (id:1332069)

梅格·卡斯丹 Meg Kasdan (id:1288155)

劳伦斯·卡斯丹 Lawrence Kasdan (id:1014071)

迈克尔·山姆伯格 Michael Shamberg (id:1297310)

约翰·威廉姆斯 John Williams (id:1054692)

卡罗尔·利特尔顿 Carol Littleton (id:1290155)

伊达·兰多姆 Ida Random (id:1295222)

林戴尔·奎尤 Lyndell Quiyou (id:1295089)

迈克尔·杰曼 Michael Germain (id:1284741)

史蒂芬·P·邓恩 Stephen P. Dunn (id:1282819)

迈克尔·格里洛 Michael Grillo (id:1285490)

◎简 介

本片探讨七个大学室友从1960年代起的成长经历。大学毕业後,大家各奔前程,有的成为企业巨子,有的成为八卦报新闻记者,有人成为电视台星探、有的成为药商、有的则当了医生、有的成为律师、也有人成为家庭主妇。这次,在一个朋友的葬礼上,他们再次聚首,重新审视自己的人生。(via 人人影视)

◎获奖情况 (共3项)

第56届奥斯卡金像奖 (1984)

最佳影片(提名)

└──迈克尔·山姆伯格 (id:1297310)

最佳女配角(提名)

└──格伦·克洛斯 (id:1031875)

最佳原创剧本(提名)

  1. Video

  2. ID : 1

  3. Format : HEVC

  4. Format/Info : High Efficiency Video Coding

  5. Format profile : Main@L5@Main

  6. Codec ID : V_MPEGH/ISO/HEVC

  7. Duration : 1 h 45 min

  8. Bit rate : 14.8 Mb/s

  9. Width : 3 840 pixels

  10. Height : 2 080 pixels

  11. Display aspect ratio : 1.85:1

  12. Frame rate mode : Constant

  13. Frame rate : 23.976 (24000/1001/53354) FPS

  14. Standard : NTSC

  15. Color space : YUV

  16. Chroma subsampling : 4:2:0

  17. Bit depth : 8 bits

  18. Bits/(Pixel*Frame) : 0.077

  19. Stream size : 10.8 GiB (75%)

  20. Writing library : x265 2.9_elemental+1-9e0607aa5b6f:[Linux][GCC 4.8.5][64 bit] 8bit+10bit+12bit

  21. Encoding settings : cpuid=533541111039 / frame-threads=2 / wpp / no-pmode / no-pme / psnr / ssim / log-level=2 / csv / csv-log-level=2 / input-csp=1 / input-res=3840x2080 / interlace=0 / total-frames=0 / level-idc=50 / high-tier=1 / uhd-bd=0 / ref=5 / no-allow-non-conformance / no-repeat-headers / annexb / no-aud / no-hrd / info / hash=0 / no-temporal-layers / no-open-gop / min-keyint=61 / keyint=120 / gop-lookahead=0 / bframes=8 / b-adapt=2 / b-pyramid / bframe-bias=0 / rc-lookahead=120 / lookahead-slices=4 / scenecut=0 / radl=0 / no-intra-refresh / ctu=64 / min-cu-size=8 / rect / amp / max-tu-size=32 / tu-inter-depth=4 / tu-intra-depth=4 / limit-tu=4 / rdoq-level=2 / dynamic-rd=0.00 / no-ssim-rd / signhide / tskip / nr-intra=100 / nr-inter=600 / no-constrained-intra / strong-intra-smoothing / max-merge=3 / limit-refs=3 / limit-modes / me=3 / subme=3 / merange=57 / temporal-mvp / weightp / weightb / no-analyze-src-pics / deblock=0:0 / no-sao / no-sao-non-deblock / rd=4 / no-early-skip / no-rskip / no-fast-intra / tskip-fast / no-cu-lossless / b-intra / no-splitrd-skip / rdpenalty=0 / psy-rd=4.00 / psy-rdoq=10.00 / no-rd-refine / no-lossless / cbqpoffs=0 / crqpoffs=0 / rc=crf / crf=25.0 / qcomp=0.60 / qpstep=1 / stats-write=0 / stats-read=0 / vbv-maxrate=15000 / vbv-bufsize=20000 / vbv-init=0.9 / crf-max=0.0 / crf-min=0.0 / ipratio=1.10 / pbratio=1.00 / aq-mode=0 / aq-strength=1.50 / no-cutree / zone-count=0 / no-strict-cbr / qg-size=32 / rc-grain / qpmax=69 / qpmin=0 / const-vbv / sar=255 / sar-width / : / sar-height=481:480 / overscan=0 / videoformat=2 / range=0 / colorprim=1 / transfer=1 / colormatrix=1 / chromaloc=0 / display-window=0 / max-cll=0,0 / min-luma=0 / max-luma=255 / log2-max-poc-lsb=8 / vui-timing-info / vui-hrd-info / slices=1 / opt-qp-pps / no-opt-ref-list-length-pps / no-multi-pass-opt-rps / scenecut-bias=0.05 / no-opt-cu-delta-qp / no-aq-motion / no-hdr / no-hdr-opt / no-dhdr10-opt / no-idr-recovery-sei / analysis-reuse-level=5 / scale-factor=0 / refine-intra=0 / refine-inter=0 / refine-mv=0 / no-limit-sao / ctu-info=0 / no-lowpass-dct / refine-mv-type=0 / copy-pic=1 / max-ausize-factor=1.0 / no-dynamic-refine / no-single-sei

  22. Language : English

  23. Default : Yes

  24. Forced : No

  25. Color range : Limited

  26. Color primaries : BT.709

  27. Transfer characteristics : BT.709

  28. Matrix coefficients : BT.709


  29. Audio #1

  30. ID : 2

  31. Format : DTS XLL

  32. Format/Info : Digital Theater Systems

  33. Commercial name : DTS-HD Master Audio

  34. Codec ID : A_DTS

  35. Duration : 1 h 45 min

  36. Bit rate mode : Variable

  37. Bit rate : 3 623 kb/s

  38. Channel(s) : 6 channels

  39. Channel layout : C L R Ls Rs LFE

  40. Sampling rate : 48.0 kHz

  41. Frame rate : 93.750 FPS (512 SPF)

  42. Bit depth : 24 bits

  43. Compression mode : Lossless

  44. Delay relative to video : 2 ms

  45. Stream size : 2.66 GiB (18%)

  46. Title : DTS-HD Master Audio / 5.1 / 48 kHz / 3620 kbps / 24-bit

  47. Language : English

  48. Default : Yes

  49. Forced : No


  50. Audio #2

  51. ID : 3

  52. Format : E-AC-3

  53. Format/Info : Enhanced AC-3

  54. Commercial name : Dolby Digital Plus

  55. Codec ID : A_EAC3

  56. Duration : 1 h 45 min

  57. Bit rate mode : Constant

  58. Bit rate : 640 kb/s

  59. Channel(s) : 6 channels

  60. Channel layout : L R C LFE Ls Rs

  61. Sampling rate : 48.0 kHz

  62. Frame rate : 31.250 FPS (1536 SPF)

  63. Compression mode : Lossy

  64. Stream size : 481 MiB (3%)

  65. Language : English

  66. Service kind : Complete Main

  67. Default : Yes

  68. Forced : No


  69. Audio #3

  70. ID : 4

  71. Format : FLAC

  72. Format/Info : Free Lossless Audio Codec

  73. Codec ID : A_FLAC

  74. Duration : 1 h 45 min

  75. Bit rate mode : Variable

  76. Bit rate : 682 kb/s

  77. Channel(s) : 1 channel

  78. Channel layout : C

  79. Sampling rate : 48.0 kHz

  80. Frame rate : 11.719 FPS (4096 SPF)

  81. Bit depth : 24 bits

  82. Compression mode : Lossless

  83. Delay relative to video : 44 ms

  84. Stream size : 513 MiB (3%)

  85. Title : Original Monaural / FLAC Audio / 1.0 / 48 kHz / 681 kbps / 24-bit

  86. Writing library : libFLAC 1.2.1 (UTC 2007-09-17)

  87. Language : English

  88. Default : No

  89. Forced : No


  90. Text #1

  91. ID : 5

  92. Format : UTF-8

  93. Codec ID : S_TEXT/UTF8

  94. Codec ID/Info : UTF-8 Plain Text

  95. Duration : 1 h 44 min

  96. Bit rate : 72 b/s

  97. Count of elements : 1788

  98. Stream size : 56.1 KiB (0%)

  99. Title : SDH

  100. Language : English

  101. Default : Yes

  102. Forced : No


  103. Text #2

  104. ID : 6

  105. Format : PGS

  106. Muxing mode : zlib

  107. Codec ID : S_HDMV/PGS

  108. Codec ID/Info : Picture based subtitle format used on BDs/HD-DVDs

  109. Duration : 1 h 44 min

  110. Bit rate : 73.3 kb/s

  111. Count of elements : 3320

  112. Stream size : 55.0 MiB (0%)

  113. Language : English

  114. Default : No

  115. Forced : No


  116. Menu

  117. 00:00:00.000 : en:Studio Logos

  118. 00:00:23.000 : en:Opening Credits

  119. 00:01:39.000 : en:Opening Credits

  120. 00:04:58.000 : en:Guests are greeted at the funeral, parking lot

  121. 00:06:31.000 : en:Funeral service takes place, church

  122. 00:08:55.000 : en:Nick arrives late, church

  123. 00:10:30.000 : en:Harold gives eulogy, church

  124. 00:13:39.000 : en:Everyone drives to the burial, street

  125. 00:15:41.000 : en:Guests arrive at the burial, cemetery

  126. 00:19:29.000 : en:Guests arrive at the funeral reception, house

  127. 00:21:56.000 : en:Friends reminisce & cope, house

  128. 00:24:52.000 : en:Everyone gets ready for bed, house

  129. 00:28:05.000 : en:Friends catch up, living room

  130. 00:30:45.000 : en:Meg goes to Nick\'s bedroom, bedroom

  131. 00:32:55.000 : en:A bat is trapped in the attic, attic

  132. 00:35:59.000 : en:Sam & Nick & Richard have a conversation, kitchen

  133. 00:37:49.000 : en:Nick & Harold go for a run, town

  134. 00:40:04.000 : en:Sarah & Michael, kitchen

  135. 00:41:59.000 : en:Nick tapes himself, living room

  136. 00:43:42.000 : en:Friends drive & talk about upcoming night club, car

  137. 00:45:57.000 : en:Sam & Karen shop, grocery store

  138. 00:46:55.000 : en:Harold & Michael take a hike, woods

  139. 00:49:33.000 : en:Sam is on TV, living room

  140. 00:52:21.000 : en:Everyone has dinner, dining room

  141. 00:55:11.000 : en:Everyone cleans up & dances, kitchen

  142. 00:57:58.000 : en:Meg asks Sam to have a child, bedroom

  143. 01:00:16.000 : en:Michael passes out & Chloe talks to Nick living room

  144. 01:02:39.000 : en:Sam & Nick & Harold run & talk about Alex, road

  145. 01:03:58.000 : en:Nick tries on new shoes, kitchen

  146. 01:06:54.000 : en:Karen talks about her life, pier

  147. 01:09:56.000 : en:Everyone watches college football, living Room

  148. 01:13:02.000 : en:Chloe plays football with guys, yard

  149. 01:16:28.000 : en:Cop follows Nick, house

  150. 01:18:54.000 : en:Nick films Chloe, living room

  151. 01:20:09.000 : en:Karen flirts with Sam, yard

  152. 01:22:33.000 : en:Everyone has chinese food dinner, dining room

  153. 01:26:14.000 : en:Reminiscing about Alex, living room

  154. 01:30:07.000 : en:Sam & Nick fight about friendship, living room

  155. 01:33:07.000 : en:Everybody pairs up, multiple locations

  156. 01:35:45.000 : en:Chloe cries, closet

  157. 01:37:52.000 : en:Nick goes through Alex\'s papers, cabin

  158. 01:39:54.000 : en:Everyone has breakfast together, kitchen

  159. 01:41:55.000 : en:End Credits

复制代码

  


磁力链:
  • magnet:?xt=urn:btih:9562D9C3A58A3E2D20AD2E1969B15A9C1CA19627
上传的附件:
BT9527电影天堂 1、BT9527电影天堂提供的BT文件均来源于互联网抓取,只供网友学习交流、技术提升使用。
2、我们遵守BitTorrent点对点协议原则,任何版权问题请联系原资源发布商,我们不处理任何版权纠纷,谢谢!如有争议请联系邮箱:BT9527#hotmail.com(#换成@)
3、如果您发现某页面或地址有错误,请联系站长邮箱BT9527#hotmail.com(#换成@),我们会尽快处理。您的热心是对BT9527电影天堂最大的支持。
4、本站建议去正规影院观看电影以支持电影行业发展。
最新回复 (0)

你可以在 登录 or 注册 后,对此帖发表评论!

返回
发新帖