香港女伯爵[简繁英字幕].A.Countess.from.Hong.Kong.1967.BluRay.1080p.x265.10bit.FLAC.REPACK-MiniHD 7.74GB

版主小s 16天前 324

✔资源类型:暂未分类   ✔电影年份:更 早   ✔电影地区:欧美   ✔电影分类:喜剧

◎译  名 香港女伯爵 / 来自香港的伯爵夫人 / 香港伯爵夫人
◎片  名 A Countess from Hong Kong
◎年  代 1967
◎产  地 英国
◎类  别 喜剧 / 爱情
◎语  言 英语 / 法语
◎上映日期 1967-01-05
◎IMDb链接 https://www.imdb.com/title/tt0061523/
◎豆瓣评分 6.6/10 (835人评价)
◎豆瓣链接 https://movie.douban.com/subject/1293393/
◎片  长 120 分钟
◎导  演 查理·卓别林 Charles Chaplin (id:1002724)
◎编  剧 查理·卓别林 Charles Chaplin (id:1002724)
◎演  员 马龙·白兰度 Marlon Brando (id:1041025)
       索菲娅·罗兰 Sophia Loren (id:1049559)
       悉尼·卓别林 Sydney Chaplin (id:1000532)
       蒂比·海德莉 Tippi Hedren (id:1013945)
       查理·卓别林 Charles Chaplin (id:1002724)
       杰拉丁·卓别林 Geraldine Chaplin (id:1025238)
       玛格丽特·鲁斯福德 Margaret Rutherford (id:1045157)
       Ronald Rubin Ronald Rubin (id:1296278)
       吴耀汉 Richard Ng (id:1037408)
       查理·卓别林 Charles Chaplin (id:1002724)
       查理·卓别林 Charles Chaplin (id:1002724)
       弗农·迪克森 Vernon Dixon (id:1282506)
       罗伯特·卡特莱特 Robert Cartwright (id:1280203)

◎简  介
  马龙·白兰度、索菲亚.罗兰等合演。描述一名美国富豪乘邮轮回美国,途经香港时,一名落魄的白俄女伯爵潜入其房间,意图偷渡美国,结果让富豪发现,二人经谈论之后共随爱河。此为喜剧大师查理.卓别林最后一部作品,亦是他唯一的彩色片,成绩虽然较其代表作失色得多,但仍维持颇高的喜剧效果,而且拍出了一点人情味。可惜男女主角选择不当,趣味性打了折扣。
  1. ##### MediaInfo ######
  2. General
  3. Unique ID                                : 233406005327462089500808668902651942984 (0xAF985C8A58A554FFBE87A86696695848)
  4. Complete name                            : A.Countess.from.Hong.Kong.1967.BluRay.1080p.x265.10bit.FLAC.REPACK-MiniHD.mkv
  5. Format                                   : Matroska
  6. Format version                           : Version 4
  7. File size                                : 7.74 GiB
  8. Duration                                 : 1 h 47 min
  9. Overall bit rate mode                    : Variable
  10. Overall bit rate                         : 10.3 Mb/s
  11. Movie name                               : A Countess from Hong Kong 1967 BluRay 1080p - FRDS
  12. Encoded date                             : UTC 2022-05-27 05:59:24
  13. Writing application                      : mkvmerge v67.0.0 ('Under Stars') 64-bit
  14. Writing library                          : libebml v1.4.2 + libmatroska v1.6.4
  15. Video
  16. ID                                       : 1
  17. Format                                   : HEVC
  18. Format/Info                              : High Efficiency Video Coding
  19. Format profile                           : Main 10@L5@High
  20. Codec ID                                 : V_MPEGH/ISO/HEVC
  21. Duration                                 : 1 h 47 min
  22. Bit rate                                 : 9 553 kb/s
  23. Width                                    : 1 920 pixels
  24. Height                                   : 1 036 pixels
  25. Display aspect ratio                     : 1.85:1
  26. Frame rate mode                          : Constant
  27. Frame rate                               : 23.976 (24000/1001/53354) FPS
  28. Color space                              : YUV
  29. Chroma subsampling                       : 4:2:0
  30. Bit depth                                : 10 bits
  31. Bits/(Pixel*Frame)                       : 0.200
  32. Stream size                              : 7.20 GiB (93%)
  33. Writing library                          : x265 3.4+1-g07e3381df+31:[Windows][GCC 10.1.0][64 bit] Yuuki 10bit+8bit+12bit
  34. Encoding settings                        : rc=crf / crf=21.0000 / qcomp=0.70 / qpstep=4 / stats-write=0 / stats-read=0 / vbv-maxrate=100000 / vbv-bufsize=100000 / vbv-init=0.9 / crf-max=0.0 / crf-min=0.0 / no-lossless / no-cu-lossless / aq-mode=1 / aq-strength=0.90 / cbqpoffs=0 / crqpoffs=0 / ipratio=1.40 / pbratio=1.30 / psy-rd=2.00 / psy-rdoq=5.00 / deblock=-1:-1 / ref=5 / limit-refs=0 / no-limit-modes / bframes=9 / b-adapt=2 / bframe-bias=0 / b-pyramid / b-intra / weightp / weightb / min-keyint=23 / max-keyint=250 / rc-lookahead=60 / gop-lookahead=0 / NTMzNTQ=uuDQuD2mJt9fsCf / scenecut=40 / hist-scenecut=0 / radl=0 / max-cu-size=32 / min-cu-size=8 / me=3 / subme=5 / merange=57 / rdoq-level=2 / rd=4 / rdpenalty=0 / dynamic-rd=0.00 / no-rd-refine / ----- / no-cutree / no-sao / no-rect / no-amp / no-open-gop / wpp / no-pmode / no-pme / no-psnr / no-ssim / nr-intra=0 / nr-inter=0 / no-constrained-intra / no-strong-intra-smoothing / max-tu-size=32 / tu-inter-depth=4 / tu-intra-depth=4 / limit-tu=0 / qg-size=32 / qpmax=69 / qpmin=0 / ----- / cpuid=533541111039 / frame-threads=4 / numa-pools=24 / log-level=2 / input-csp=1 / input-res=1920x1036 / interlace=0 / level-idc=0 / high-tier=1 / uhd-bd=0 / no-allow-non-conformance / no-repeat-headers / no-aud / no-hrd / info / hash=0 / no-temporal-layers / lookahead-slices=0 / no-splice / no-intra-refresh / no-ssim-rd / signhide / no-tskip / max-merge=5 / temporal-mvp / no-frame-dup / no-hme / no-analyze-src-pics / no-sao-non-deblock / selective-sao=0 / no-early-skip / no-rskip / no-fast-intra / no-tskip-fast / no-splitrd-skip / zone-count=0 / no-strict-cbr / no-rc-grain / no-const-vbv / sar=0 / overscan=0 / videoformat=5 / range=0 / colorprim=1 / transfer=1 / colormatrix=1 / chromaloc=0 / display-window=0 / cll=0,0 / min-luma=0 / max-luma=1023 / log2-max-poc-lsb=8 / vui-timing-info / vui-hrd-info / slices=1 / no-opt-qp-pps / no-opt-ref-list-length-pps / no-multi-pass-opt-rps / scenecut-bias=0.05 / hist-threshold=0.01 / no-opt-cu-delta-qp / no-aq-motion / no-hdr10 / no-hdr10-opt / no-dhdr10-opt / no-idr-recovery-sei / analysis-reuse-level=0 / analysis-save-reuse-level=0 / analysis-load-reuse-level=0 / scale-factor=0 / refine-intra=0 / refine-inter=0 / refine-mv=1 / refine-ctu-distortion=0 / no-limit-sao / ctu-info=0 / no-lowpass-dct / refine-analysis-type=0 / copy-pic=1 / max-ausize-factor=1.0 / no-dynamic-refine / no-single-sei / no-hevc-aq / no-svt / no-field / qp-adaptation-range=1.00 / no-scenecut-aware-qpconformance-window-offsets / right=0 / bottom=0 / NTMzNTQ= / decoder-max-rate=0
  35. Default                                  : Yes
  36. Forced                                   : No
  37. Color range                              : Limited
  38. Color primaries                          : BT.709
  39. Transfer characteristics                 : BT.709
  40. Matrix coefficients                      : BT.709
  41. Audio
  42. ID                                       : 2
  43. Format                                   : FLAC
  44. Format/Info                              : Free Lossless Audio Codec
  45. Codec ID                                 : A_FLAC
  46. Duration                                 : 1 h 47 min
  47. Bit rate mode                            : Variable
  48. Bit rate                                 : 664 kb/s
  49. Channel(s)                               : 2 channels
  50. Channel layout                           : L R
  51. Sampling rate                            : 48.0 kHz
  52. Frame rate                               : 10.417 FPS (4608 SPF)
  53. Bit depth                                : 24 bits
  54. Compression mode                         : Lossless
  55. Stream size                              : 513 MiB (6%)
  56. Writing library                          : Lavf58.29.100
  57. Language                                 : English
  58. Default                                  : Yes
  59. Forced                                   : No
  60. Text #1
  61. ID                                       : 3
  62. Format                                   : PGS
  63. Muxing mode                              : zlib
  64. Codec ID                                 : S_HDMV/PGS
  65. Codec ID/Info                            : Picture based subtitle format used on BDs/HD-DVDs
  66. Duration                                 : 1 h 44 min
  67. Bit rate                                 : 48.2 kb/s
  68. Count of elements                        : 3078
  69. Stream size                              : 36.2 MiB (0%)
  70. Language                                 : English
  71. Default                                  : No
  72. Forced                                   : No
  73. Text #2
  74. ID                                       : 4
  75. Format                                   : PGS
  76. Muxing mode                              : zlib
  77. Codec ID                                 : S_HDMV/PGS
  78. Codec ID/Info                            : Picture based subtitle format used on BDs/HD-DVDs
  79. Duration                                 : 1 h 44 min
  80. Bit rate                                 : 31.2 kb/s
  81. Count of elements                        : 1796
  82. Stream size                              : 23.3 MiB (0%)
  83. Title                                    : CHS
  84. Language                                 : Chinese
  85. Default                                  : Yes
  86. Forced                                   : No
  87. Text #3
  88. ID                                       : 5
  89. Format                                   : PGS
  90. Muxing mode                              : zlib
  91. Codec ID                                 : S_HDMV/PGS
  92. Codec ID/Info                            : Picture based subtitle format used on BDs/HD-DVDs
  93. Duration                                 : 1 h 44 min
  94. Bit rate                                 : 31.7 kb/s
  95. Count of elements                        : 1796
  96. Stream size                              : 23.7 MiB (0%)
  97. Title                                    : CHT
  98. Language                                 : Chinese
  99. Default                                  : Yes
  100. Forced                                   : No
  101. Menu
  102. 00:00:00.000                             : en:Chapter 1
  103. 00:10:00.600                             : en:Chapter 2
  104. 00:20:01.200                             : en:Chapter 3
  105. 00:30:01.800                             : en:Chapter 4
  106. 00:40:02.400                             : en:Chapter 5
  107. 00:50:03.000                             : en:Chapter 6
  108. 01:00:03.600                             : en:Chapter 7
  109. 01:10:04.200                             : en:Chapter 8
  110. 01:20:04.800                             : en:Chapter 9
  111. 01:30:05.400                             : en:Chapter 10
  112. 01:40:06.000                             : en:Chapter 11
  113. 01:47:56.220                             : en:Chapter 12





此处一般会放置磁力链或种子下载链接,不过此链接需要注册会员才能看到,点击“立即注册”
磁力链下载【下载链接仅对注册会员开放,登陆后可见】
BT9527电影天堂 1、BT9527电影天堂提供的BT文件均来源于互联网抓取,只供网友学习交流、技术提升使用。
2、我们遵守BitTorrent点对点协议原则,任何版权问题请联系原资源发布商,我们不处理任何版权纠纷,谢谢!如有争议请联系邮箱:BT9527#hotmail.com(#换成@)
3、如果您发现某页面或地址有错误,请联系站长邮箱BT9527#hotmail.com(#换成@),我们会尽快处理。您的热心是对BT9527电影天堂最大的支持。
4、本站建议去正规影院观看电影以支持电影行业发展。
最新回复 (0)

你可以在 登录 or 注册 后,对此帖发表评论!

返回
发新帖