铁面无私[杜比视界版本][国英多音轨/简繁英字幕].The.Untouchables.1987.2160p.UHD.BluRay.2160p.x265.10bit.DoVi-MiniHD 21.99GB

版主小s 3月前 208

✔资源类型:BD-4K   ✔电影年份:更 早   ✔电影地区:欧美   ✔电影分类:剧情

◎译  名 铁面无私 / 义胆雄心(港) / 不可触犯
◎片  名 The Untouchables
◎年  代 1987
◎产  地 美国
◎类  别 剧情 / 惊悚 / 历史 / 犯罪
◎语  言 英语
◎上映日期 1987-06-02(纽约首映)
◎IMDb链接 https://www.imdb.com/title/tt0094226/
◎豆瓣评分 7.7/10 (18337人评价)
◎豆瓣链接 https://movie.douban.com/subject/1292532/
◎片  长 119分钟
◎导  演 布莱恩·德·帕尔玛 Brian De Palma (id:1012516)
◎编  剧 大卫·马梅 David Mamet (id:1036481)
       Oscar Fraley Oscar Fraley (id:1023960)
       Eliot Ness Eliot Ness (id:1000881)
◎演  员 凯文·科斯特纳 Kevin Costner (id:1016671)
       肖恩·康纳利 Sean Connery (id:1018982)
       查尔斯·马丁·史密斯 Charles Martin Smith (id:1041194)
       安迪·加西亚 Andy Garcia (id:1002695)
       罗伯特·德尼罗 Robert De Niro (id:1054445)
       理查德·布拉德福德 Richard Bradford (id:1075126)
       杰克·基欧 Jack Kehoe (id:1103670)
       布拉德·苏利文 Brad Sullivan (id:1041292)
       比利·德拉戈 Billy Drago (id:1049756)
       派翠西娅·克拉克森 Patricia Clarkson (id:1013791)
       维托·达布罗西奥 Vito D'Ambrosio (id:1072426)
       Steven Goldstein Steven Goldstein (id:1094032)
       唐·哈维 Don Harvey (id:1345203)
       德尔克洛斯 Del Close (id:1077508)
       迈克·巴卡雷纳 Mike Bacarella (id:1432840)
       拉里·布兰登伯格 Larry Brandenburg (id:1074035)
       切尔西·罗斯 Chelcie Ross (id:1041208)
       Sam Smiley Sam Smiley (id:1154025)
       Jennifer Anglin Jennifer Anglin (id:1277282)
       Vince Viverito Vince Viverito (id:1166926)
       Joe Greco Joe Greco (id:1091631)
       Robert Miranda Robert Miranda (id:1350584)
       约翰·巴罗曼 John Barrowman (id:1031887)
       Stephen Burrows Stephen Burrows (id:1279687)
       Ernest Capponi Ernest Capponi (id:1069858)
       埃迪·多诺 Eddy Donno (id:1282590)
       Jack Fitzstephens Jack Fitzstephens (id:1283818)
       克里夫顿·詹姆斯 Clifton James (id:1019158)
       Matt Johnston Matt Johnston (id:1287839)
       阿特·林森 Art Linson (id:1290103)
       恩尼奥·莫里康内 Ennio Morricone (id:1044688)
       史蒂芬·H·布鲁姆 Stephen H. Burum (id:1037457)
       比尔·潘科 Bill Pankow (id:1293896)
       威廉·A·艾略特 William A. Elliott (id:1283133)
       哈尔·高斯曼 Hal Gausman (id:1284639)
       玛丽莲·万斯 Marilyn Vance (id:1276618)
       乔治·阿玛尼 Giorgio Armani (id:1009850)
       迈克尔·汉考克 Michael Hancock (id:1285947)
       Glen Trotiner Glen Trotiner (id:1299553)

◎简  介
  30年代的芝加哥充满了混乱,黑道横行官商勾结,其中,要数掌握着私酒市场命脉的黑帮老大卡彭(罗伯特·德尼罗 Robert De Niro 饰)的势力最为强大。即使在这样黑暗的环境中,联邦探员纳斯(凯文·科斯特纳 Kevin Costner 饰)也依然怀抱着惩奸除恶的理想, 可是很快,现实便教会了他,在这个世界里,谁才是老大。                                    
                                在老警探马龙(肖恩·康纳利 Sean Connery 饰)的帮助下,纳斯重拾了自信,他组织了一个专案小组,专门调查和打击卡彭的犯罪事业。在纳斯的努力下,小组的行动初显成效,可随之而来的,就是来自卡彭的威胁和迫害。组员被杀,马龙受伤,这一切的一切都不能使纳斯消沉,反而更加坚定了他除掉卡彭的决心,一场激烈的较量在正义和邪恶之间拉开了帷幕。

◎获奖情况 (共4项)
  第60届奥斯卡金像奖 (1988)
  最佳男配角
   └──肖恩·康纳利 (id:1018982)
  最佳艺术指导(提名)
  最佳服装设计(提名)
   └──玛丽莲·万斯 (id:1276618)
  最佳原创配乐(提名)
   └──恩尼奥·莫里康内 (id:1044688)

  1. ##### MediaInfo ######
  2. General
  3. Unique ID                                : 273422487842583780253289064800197578762 (0xCDB3417446C936B66020C1FEB12C900A)
  4. Complete name                            : The.Untouchables.1987.2160p.UHD.BluRay.2160p.x265.10bit.DoVi-MiniHD.mkv
  5. Format                                   : Matroska
  6. Format version                           : Version 4
  7. File size                                : 22.0 GiB
  8. Duration                                 : 1 h 59 min
  9. Overall bit rate mode                    : Variable
  10. Overall bit rate                         : 26.4 Mb/s
  11. Encoded date                             : UTC 2022-05-29 06:40:44
  12. Writing application                      : mkvmerge v66.0.0 ('Josie') 64-bit
  13. Writing library                          : libebml v1.4.2 + libmatroska v1.6.4
  14. Video
  15. ID                                       : 1
  16. Format                                   : HEVC
  17. Format/Info                              : High Efficiency Video Coding
  18. Format profile                           : Main 10@L5.1@High
  19. HDR format                               : SMPTE ST 2086, HDR10 compatible
  20. Codec ID                                 : V_MPEGH/ISO/HEVC
  21. Duration                                 : 1 h 59 min
  22. Bit rate                                 : 21.3 Mb/s
  23. Width                                    : 3 840 pixels
  24. Height                                   : 1 600 pixels
  25. Display aspect ratio                     : 2.40:1
  26. Frame rate mode                          : Constant
  27. Frame rate                               : 23.976 (24000/1001/53354) FPS
  28. Color space                              : YUV
  29. Chroma subsampling                       : 4:2:0
  30. Bit depth                                : 10 bits
  31. Bits/(Pixel*Frame)                       : 0.144
  32. Stream size                              : 17.7 GiB (81%)
  33. Writing library                          : x265 3.3+3-g8f8e332f1+29:[Windows][#Erg`Djh#][@Yuuki] made by @Dongfangbubai
  34. Encoding settings                        : rc=crf / crf=18.0000 / qcomp=0.70 / qpstep=4 / stats-write=0 / stats-read=0 / vbv-maxrate=160000 / vbv-bufsize=160000 / vbv-init=0.9 / crf-max=0.0 / crf-min=0.0 / no-lossless / no-cu-lossless / aq-mode=3 / aq-strength=0.80 / cbqpoffs=-3 / crqpoffs=-3 / ipratio=1.40 / pbratio=1.30 / psy-rd=2.00 / psy-rdoq=3.00 / deblock=-1:-1 / ref=5 / limit-refs=0 / no-limit-modes / bframes=8 / b-adapt=2 / bframe-bias=0 / b-pyramid / b-intra / weightp / weightb / min-keyint=23 / max-keyint=240 / rc-lookahead=60 / gop-lookahead=0 / NTMzNTQ=uuDQuD2mJt9fsCf / scenecut=40 / hist-scenecut=0 / radl=0 / max-cu-size=32 / min-cu-size=8 / me=3 / subme=4 / merange=25 / rdoq-level=2 / rd=4 / rdpenalty=1 / dynamic-rd=0.00 / no-rd-refine / ----- / no-cutree / no-sao / no-rect / no-amp / no-open-gop / wpp / pmode / pme / no-psnr / no-ssim / nr-intra=0 / nr-inter=0 / no-constrained-intra / no-strong-intra-smoothing / max-tu-size=32 / tu-inter-depth=2 / tu-intra-depth=2 / limit-tu=0 / qg-size=32 / qpmax=69 / qpmin=0 / ----- / cpuid=533541176575 / frame-threads=6 / numa-pools=54,- / log-level=2 / input-csp=1 / input-res=3840x1600 / interlace=0 / level-idc=0 / high-tier=1 / uhd-bd=0 / no-allow-non-conformance / repeat-headers / aud / hrd / info / hash=0 / no-temporal-layers / lookahead-slices=0 / no-splice / no-intra-refresh / no-ssim-rd / signhide / no-tskip / max-merge=3 / temporal-mvp / no-frame-dup / no-hme / no-analyze-src-pics / no-sao-non-deblock / selective-sao=0 / no-early-skip / no-rskip / no-fast-intra / no-tskip-fast / no-splitrd-skip / zone-count=0 / no-strict-cbr / no-rc-grain / no-const-vbv / sar=0 / overscan=0 / videoformat=5 / range=0 / colorprim=9 / transfer=16 / colormatrix=9 / chromaloc=0 / display-window=0 / master-display=G(13250,34500)B(7500,3000)R(34000,16000)WP(15635,16450)L(10000000,1) / cll=1000,573 / min-luma=0 / max-luma=1023 / log2-max-poc-lsb=8 / vui-timing-info / vui-hrd-info / slices=1 / no-opt-qp-pps / no-opt-ref-list-length-pps / no-multi-pass-opt-rps / scenecut-bias=0.05 / hist-threshold=0.01 / no-opt-cu-delta-qp / no-aq-motion / hdr10 / hdr10-opt / no-dhdr10-opt / no-idr-recovery-sei / analysis-reuse-level=0 / analysis-save-reuse-level=0 / analysis-load-reuse-level=0 / scale-factor=0 / refine-intra=0 / refine-inter=0 / refine-mv=1 / refine-ctu-distortion=0 / no-limit-sao / ctu-info=0 / no-lowpass-dct / refine-analysis-type=0 / copy-pic=1 / max-ausize-factor=1.0 / no-dynamic-refine / no-single-sei / no-hevc-aq / no-svt / no-field / qp-adaptation-range=1.00 / no-scenecut-aware-qpconformance-window-offsets / right=0 / bottom=0 / NTMzNTQ=
  35. Default                                  : Yes
  36. Forced                                   : No
  37. Color range                              : Limited
  38. Color primaries                          : BT.2020
  39. Transfer characteristics                 : PQ
  40. Matrix coefficients                      : BT.2020 non-constant
  41. Mastering display color primaries        : Display P3
  42. Mastering display luminance              : min: 0.0001 cd/m2, max: 1000 cd/m2
  43. Maximum Content Light Level              : 1000 cd/m2
  44. Maximum Frame-Average Light Level        : 573 cd/m2
  45. Audio #1
  46. ID                                       : 2
  47. Format                                   : MLP FBA 16-ch
  48. Format/Info                              : Meridian Lossless Packing FBA with 16-channel presentation
  49. Commercial name                          : Dolby TrueHD with Dolby Atmos
  50. Codec ID                                 : A_TRUEHD
  51. Duration                                 : 1 h 59 min
  52. Bit rate mode                            : Variable
  53. Bit rate                                 : 4 339 kb/s
  54. Maximum bit rate                         : 6 639 kb/s
  55. Channel(s)                               : 8 channels
  56. Channel layout                           : L R C LFE Ls Rs Lb Rb
  57. Sampling rate                            : 48.0 kHz
  58. Frame rate                               : 1 200.000 FPS (40 SPF)
  59. Compression mode                         : Lossless
  60. Stream size                              : 3.62 GiB (16%)
  61. Title                                    : 英语
  62. Language                                 : English
  63. Default                                  : Yes
  64. Forced                                   : No
  65. Number of dynamic objects                : 11
  66. Bed channel count                        : 1 channel
  67. Bed channel configuration                : LFE
  68. Audio #2
  69. ID                                       : 3
  70. Format                                   : AC-3
  71. Format/Info                              : Audio Coding 3
  72. Commercial name                          : Dolby Digital
  73. Codec ID                                 : A_AC3
  74. Duration                                 : 1 h 59 min
  75. Bit rate mode                            : Constant
  76. Bit rate                                 : 256 kb/s
  77. Channel(s)                               : 2 channels
  78. Channel layout                           : L R
  79. Sampling rate                            : 48.0 kHz
  80. Frame rate                               : 31.250 FPS (1536 SPF)
  81. Compression mode                         : Lossy
  82. Delay relative to video                  : 24 ms
  83. Stream size                              : 219 MiB (1%)
  84. Title                                    : 央视国语
  85. Language                                 : Chinese
  86. Service kind                             : Complete Main
  87. Default                                  : No
  88. Forced                                   : No
  89. Audio #3
  90. ID                                       : 4
  91. Format                                   : AC-3
  92. Format/Info                              : Audio Coding 3
  93. Commercial name                          : Dolby Digital
  94. Codec ID                                 : A_AC3
  95. Duration                                 : 1 h 59 min
  96. Bit rate mode                            : Constant
  97. Bit rate                                 : 384 kb/s
  98. Channel(s)                               : 6 channels
  99. Channel layout                           : L R C LFE Ls Rs
  100. Sampling rate                            : 48.0 kHz
  101. Frame rate                               : 31.250 FPS (1536 SPF)
  102. Compression mode                         : Lossy
  103. Delay relative to video                  : 24 ms
  104. Stream size                              : 328 MiB (1%)
  105. Title                                    : 北译内参国语
  106. Language                                 : Chinese
  107. Service kind                             : Complete Main
  108. Default                                  : No
  109. Forced                                   : No
  110. Text #1
  111. ID                                       : 5
  112. Format                                   : PGS
  113. Muxing mode                              : zlib
  114. Codec ID                                 : S_HDMV/PGS
  115. Codec ID/Info                            : Picture based subtitle format used on BDs/HD-DVDs
  116. Duration                                 : 1 h 54 min
  117. Bit rate                                 : 28.7 kb/s
  118. Count of elements                        : 2202
  119. Stream size                              : 23.4 MiB (0%)
  120. Title                                    : R3简中
  121. Language                                 : Chinese
  122. Default                                  : Yes
  123. Forced                                   : No
  124. Text #2
  125. ID                                       : 6
  126. Format                                   : PGS
  127. Muxing mode                              : zlib
  128. Codec ID                                 : S_HDMV/PGS
  129. Codec ID/Info                            : Picture based subtitle format used on BDs/HD-DVDs
  130. Duration                                 : 1 h 54 min
  131. Bit rate                                 : 27.9 kb/s
  132. Count of elements                        : 2220
  133. Stream size                              : 22.8 MiB (0%)
  134. Title                                    : R3繁中
  135. Language                                 : Chinese
  136. Default                                  : No
  137. Forced                                   : No
  138. Text #3
  139. ID                                       : 7
  140. Format                                   : PGS
  141. Muxing mode                              : zlib
  142. Codec ID                                 : S_HDMV/PGS
  143. Codec ID/Info                            : Picture based subtitle format used on BDs/HD-DVDs
  144. Duration                                 : 1 h 54 min
  145. Bit rate                                 : 38.1 kb/s
  146. Count of elements                        : 2184
  147. Stream size                              : 31.1 MiB (0%)
  148. Title                                    : 双语
  149. Language                                 : Chinese
  150. Default                                  : No
  151. Forced                                   : No
  152. Text #4
  153. ID                                       : 8
  154. Format                                   : PGS
  155. Muxing mode                              : zlib
  156. Codec ID                                 : S_HDMV/PGS
  157. Codec ID/Info                            : Picture based subtitle format used on BDs/HD-DVDs
  158. Duration                                 : 1 h 52 min
  159. Bit rate                                 : 25.3 kb/s
  160. Count of elements                        : 2112
  161. Stream size                              : 20.3 MiB (0%)
  162. Title                                    : 英文
  163. Language                                 : English
  164. Default                                  : No
  165. Forced                                   : No
  166. Menu
  167. 00:00:00.000                             : en:Chapter 01
  168. 00:12:05.516                             : en:Chapter 02
  169. 00:21:17.734                             : en:Chapter 03
  170. 00:33:29.966                             : en:Chapter 04
  171. 00:42:35.010                             : en:Chapter 05
  172. 00:51:30.712                             : en:Chapter 06
  173. 01:06:43.833                             : en:Chapter 07
  174. 01:13:12.012                             : en:Chapter 08
  175. 01:23:21.287                             : en:Chapter 09
  176. 01:33:45.870                             : en:Chapter 10
  177. 01:43:20.027                             : en:Chapter 11
  178. 01:52:58.772                             : en:Chapter 12





此处一般会放置磁力链或种子下载链接,不过此链接需要注册会员才能看到,点击“立即注册”
磁力链下载【下载链接仅对注册会员开放,登陆后可见】
BT9527电影天堂 1、BT9527电影天堂提供的BT文件均来源于互联网抓取,只供网友学习交流、技术提升使用。
2、我们遵守BitTorrent点对点协议原则,任何版权问题请联系原资源发布商,我们不处理任何版权纠纷,谢谢!如有争议请联系邮箱:BT9527#hotmail.com(#换成@)
3、如果您发现某页面或地址有错误,请联系站长邮箱BT9527#hotmail.com(#换成@),我们会尽快处理。您的热心是对BT9527电影天堂最大的支持。
4、本站建议去正规影院观看电影以支持电影行业发展。
最新回复 (0)

你可以在 登录 or 注册 后,对此帖发表评论!

返回