迷失Z城[简英字幕].The.Lost.City.of.Z.2016.BluRay.1080p.x265.10bit.DDP5.1-MiniHD 8.31GB

版主小s 16天前 172

✔资源类型:暂未分类   ✔电影年份:2016   ✔电影地区:欧美   ✔电影分类:剧情

◎译  名 迷失Z城 / 失落之城(台)
◎片  名 The Lost City of Z
◎年  代 2016
◎产  地 美国
◎类  别 剧情 / 传记 / 冒险
◎语  言 英语 / 葡萄牙语 / 图皮语 / 西班牙语 / 德语
◎上映日期 2017-06-02(中国大陆) / 2016-10-15(纽约电影节) / 2017-04-14(美国)
◎IMDb链接 https://www.imdb.com/title/tt1212428/
◎豆瓣评分 6.9/10 (22870人评价)
◎豆瓣链接 https://movie.douban.com/subject/3025669/
◎片  长 141分钟
◎导  演 詹姆斯·格雷 James Gray (id:1275054)
◎编  剧 詹姆斯·格雷 James Gray (id:1275054)
       大卫·格兰 David Grann (id:1393671)
◎演  员 查理·汉纳姆 Charlie Hunnam (id:1000024)
       罗伯特·帕丁森 Robert Pattinson (id:1035656)
       西耶娜·米勒 Sienna Miller (id:1003485)
       汤姆·赫兰德 Tom Holland (id:1325351)
       爱德华·阿什利 Edward Ashley (id:1329414)
       安古斯·麦克菲登 Angus Macfadyen (id:1049554)
       伊恩·麦克迪阿梅德 Ian McDiarmid (id:1022714)
       克莱夫·弗朗西斯 Clive Francis (id:1080765)
       马修·桑德兰 Matthew Sunderland (id:1298657)
       亚历山大·约瓦诺维奇 Aleksandar Jovanovic (id:1113359)
       叶莲娜·索洛维 Yelena Solovey (id:1160499)
       鲍比·斯莫德里奇 Bobby Smalldridge (id:1360409)
       弗兰科·内罗 Franco Nero (id:1036400)
       汤姆·穆艾伦 Tom Mulheron (id:1386471)
       哈利·米尔林 Harry Melling (id:1032110)
       迈克尔·菲茨杰拉德 Michael FitzGerald (id:1209470)
       丹尼尔·赫特斯通 Daniel Huttlestone (id:1326977)
       迪·加德纳 Dede Gardner (id:1284552)
       杰瑞米·克莱纳 Jeremy Kleiner (id:1336137)
       布拉德·皮特 Brad Pitt (id:1054452)
       詹姆斯·格雷 James Gray (id:1275054)
       达吕斯·康第 Darius Khondji (id:1028011)
       让-文桑·朴祖 Jean-Vincent Puzos (id:1466545)
       索尼娅·格兰德 Sonia Grande (id:1334111)
       杰克·菲斯克 Jack Fisk (id:1036807)

◎简  介
  英国探险家珀西·福斯特(查理·汉纳姆 Charlie Hunnam 饰)深入神秘的南美洲亚马逊丛林探险,竟发现未知的文明生活迹象,他回到英国公开这个意义深远的重大发现,却被当成笑话嘲弄,没有人愿意相信他的话。在爱妻尼娜(西耶娜·米勒 Sienna Miller 饰)无怨无悔的支持下,福斯特决心带领儿子杰克(汤姆·霍兰德 Tom Holland 饰)重返亚马逊丛林,寻找古文明存在的证据,一行人却离奇消失,从此再无任何音讯,成为史上最神秘又悬疑的失踪事件。

◎获奖情况 (共2项)
  第21届美国在线影评人协会奖 (2017)
  最佳改编剧本(提名)
   └──詹姆斯·格雷 (id:1275054)
  最佳摄影(提名)
   └──达吕斯·康第 (id:1028011)

  1. ##### MediaInfo ######
  2. General
  3. Unique ID                                : 86367318244574829252475382004103743629 (0x40F9BD8DA17DB0ACA826AA924FC7888D)
  4. Complete name                            : The.Lost.City.of.Z.2016.BluRay.1080p.x265.10bit.DDP5.1-MiniHD.mkv
  5. Format                                   : Matroska
  6. Format version                           : Version 4
  7. File size                                : 8.31 GiB
  8. Duration                                 : 2 h 21 min
  9. Overall bit rate                         : 8 419 kb/s
  10. Encoded date                             : UTC 2022-06-02 01:09:50
  11. Writing application                      : mkvmerge v68.0.0 ('The Curtain') 64-bit
  12. Writing library                          : libebml v1.4.2 + libmatroska v1.6.4
  13. Video
  14. ID                                       : 1
  15. Format                                   : HEVC
  16. Format/Info                              : High Efficiency Video Coding
  17. Format profile                           : Main 10@L5@High
  18. Codec ID                                 : V_MPEGH/ISO/HEVC
  19. Duration                                 : 2 h 21 min
  20. Bit rate                                 : 7 361 kb/s
  21. Width                                    : 1 920 pixels
  22. Height                                   : 804 pixels
  23. Display aspect ratio                     : 2.40:1
  24. Frame rate mode                          : Constant
  25. Frame rate                               : 23.976 (24000/1001/53354) FPS
  26. Color space                              : YUV
  27. Chroma subsampling                       : 4:2:0
  28. Bit depth                                : 10 bits
  29. Bits/(Pixel*Frame)                       : 0.199
  30. Stream size                              : 7.26 GiB (87%)
  31. Writing library                          : x265 3.5+20-17839cc0d:[Windows][GCC 11.2.0][64 bit] 10bit
  32. Encoding settings                        : cpuid=533541111039 / frame-threads=5 / numa-pools=24,24 / wpp / no-pmode / no-pme / no-psnr / no-ssim / log-level=2 / input-csp=1 / input-res=1920x804 / interlace=0 / total-frames=203185 / level-idc=0 / high-tier=1 / uhd-bd=0 / ref=5 / no-allow-non-conformance / no-repeat-headers / annexb / no-aud / no-eob / no-eos / no-hrd / info / hash=0 / no-temporal-layers / no-open-gop / min-keyint=23 / keyint=250 / gop-lookahead=0 / bframes=9 / b-adapt=2 / b-pyramid / bframe-bias=0 / rc-lookahead=60 / lookahead-slices=0 / NTMzNTQ=uuDQuD2mJt9fsCf / scenecut=40 / no-hist-scenecut / radl=0 / no-splice / no-intra-refresh / ctu=32 / min-cu-size=8 / no-rect / no-amp / max-tu-size=32 / tu-inter-depth=4 / tu-intra-depth=4 / limit-tu=0 / rdoq-level=2 / dynamic-rd=0.00 / no-ssim-rd / signhide / no-tskip / nr-intra=0 / nr-inter=0 / no-constrained-intra / no-strong-intra-smoothing / max-merge=5 / limit-refs=0 / no-limit-modes / me=3 / subme=5 / merange=57 / temporal-mvp / no-frame-dup / no-hme / weightp / weightb / no-analyze-src-pics / deblock=-1:-1 / no-sao / no-sao-non-deblock / rd=4 / selective-sao=0 / no-early-skip / no-rskip / no-fast-intra / no-tskip-fast / no-cu-lossless / b-intra / no-splitrd-skip / rdpenalty=0 / psy-rd=2.00 / psy-rdoq=5.00 / no-rd-refine / no-lossless / cbqpoffs=0 / crqpoffs=0 / rc=crf / crf=20.0 / qcomp=0.70 / qpstep=4 / stats-write=0 / stats-read=0 / vbv-maxrate=100000 / vbv-bufsize=100000 / vbv-init=0.9 / min-vbv-fullness=50.0 / max-vbv-fullness=80.0 / crf-max=0.0 / crf-min=0.0 / ipratio=1.40 / pbratio=1.30 / aq-mode=1 / aq-strength=0.90 / no-cutree / zone-count=0 / no-strict-cbr / qg-size=32 / no-rc-grain / qpmax=69 / qpmin=0 / no-const-vbv / sar=0 / overscan=0 / videoformat=5 / range=0 / colorprim=1 / transfer=1 / colormatrix=1 / chromaloc=0 / display-window=0 / cll=0,0 / min-luma=0 / max-luma=1023 / log2-max-poc-lsb=8 / vui-timing-info / vui-hrd-info / slices=1 / no-opt-qp-pps / no-opt-ref-list-length-pps / no-multi-pass-opt-rps / scenecut-bias=0.05 / hist-threshold=0.03 / no-opt-cu-delta-qp / no-aq-motion / no-hdr10 / no-hdr10-opt / no-dhdr10-opt / no-idr-recovery-sei / analysis-reuse-level=0 / analysis-save-reuse-level=0 / analysis-load-reuse-level=0 / scale-factor=0 / refine-intra=0 / refine-inter=0 / refine-mv=1 / refine-ctu-distortion=0 / no-limit-sao / ctu-info=0 / no-lowpass-dct / refine-analysis-type=0 / copy-pic=1 / max-ausize-factor=1.0 / no-dynamic-refine / no-single-sei / no-hevc-aq / no-svt / no-field / qp-adaptation-range=1.00 / scenecut-aware-qp=0conformance-window-offsets / right=0 / bottom=0 / NTMzNTQ= / decoder-max-rate=0 / no-vbv-live-multi-pass
  33. Default                                  : Yes
  34. Forced                                   : No
  35. Color range                              : Limited
  36. Color primaries                          : BT.709
  37. Transfer characteristics                 : BT.709
  38. Matrix coefficients                      : BT.709
  39. Audio
  40. ID                                       : 2
  41. Format                                   : E-AC-3
  42. Format/Info                              : Enhanced AC-3
  43. Commercial name                          : Dolby Digital Plus
  44. Codec ID                                 : A_EAC3
  45. Duration                                 : 2 h 21 min
  46. Bit rate mode                            : Constant
  47. Bit rate                                 : 1 024 kb/s
  48. Channel(s)                               : 6 channels
  49. Channel layout                           : L R C LFE Ls Rs
  50. Sampling rate                            : 48.0 kHz
  51. Frame rate                               : 31.250 FPS (1536 SPF)
  52. Compression mode                         : Lossy
  53. Stream size                              : 1.01 GiB (12%)
  54. Language                                 : English
  55. Service kind                             : Complete Main
  56. Default                                  : Yes
  57. Forced                                   : No
  58. Text #1
  59. ID                                       : 3
  60. ID in the original source medium         : 4610 (0x1202)
  61. Format                                   : PGS
  62. Muxing mode                              : zlib
  63. Codec ID                                 : S_HDMV/PGS
  64. Codec ID/Info                            : Picture based subtitle format used on BDs/HD-DVDs
  65. Duration                                 : 2 h 10 min
  66. Bit rate                                 : 27.9 kb/s
  67. Count of elements                        : 2738
  68. Stream size                              : 26.1 MiB (0%)
  69. Title                                    : chs
  70. Language                                 : Chinese
  71. Default                                  : Yes
  72. Forced                                   : No
  73. Original source medium                   : Blu-ray
  74. Text #2
  75. ID                                       : 4
  76. ID in the original source medium         : 4608 (0x1200)
  77. Format                                   : PGS
  78. Muxing mode                              : zlib
  79. Codec ID                                 : S_HDMV/PGS
  80. Codec ID/Info                            : Picture based subtitle format used on BDs/HD-DVDs
  81. Duration                                 : 2 h 10 min
  82. Bit rate                                 : 35.1 kb/s
  83. Count of elements                        : 3143
  84. Stream size                              : 32.9 MiB (0%)
  85. Language                                 : English
  86. Default                                  : No
  87. Forced                                   : No
  88. Original source medium                   : Blu-ray
  89. Menu
  90. 00:00:00.000                             : en:Chapter01
  91. 00:08:21.751                             : en:Chapter02
  92. 00:15:32.848                             : en:Chapter03
  93. 00:21:29.037                             : en:Chapter04
  94. 00:27:10.045                             : en:Chapter05
  95. 00:34:57.637                             : en:Chapter06
  96. 00:44:59.113                             : en:Chapter07
  97. 00:49:36.431                             : en:Chapter08
  98. 00:58:25.919                             : en:Chapter09
  99. 01:04:43.337                             : en:Chapter10
  100. 01:11:10.599                             : en:Chapter11
  101. 01:21:22.294                             : en:Chapter12
  102. 01:27:42.423                             : en:Chapter13
  103. 01:30:42.854                             : en:Chapter14
  104. 01:39:46.230                             : en:Chapter15
  105. 01:43:59.983                             : en:Chapter16
  106. 01:51:40.193                             : en:Chapter17
  107. 01:56:11.089                             : en:Chapter18
  108. 02:01:43.045                             : en:Chapter19
  109. 02:08:34.373                             : en:Chapter20





此处一般会放置磁力链或种子下载链接,不过此链接需要注册会员才能看到,点击“立即注册”
磁力链下载【下载链接仅对注册会员开放,登陆后可见】
BT9527电影天堂 1、BT9527电影天堂提供的BT文件均来源于互联网抓取,只供网友学习交流、技术提升使用。
2、我们遵守BitTorrent点对点协议原则,任何版权问题请联系原资源发布商,我们不处理任何版权纠纷,谢谢!如有争议请联系邮箱:BT9527#hotmail.com(#换成@)
3、如果您发现某页面或地址有错误,请联系站长邮箱BT9527#hotmail.com(#换成@),我们会尽快处理。您的热心是对BT9527电影天堂最大的支持。
4、本站建议去正规影院观看电影以支持电影行业发展。
最新回复 (0)

你可以在 登录 or 注册 后,对此帖发表评论!

返回
发新帖