荒漠怪客[简繁英字幕].Johnny.Guitar.1954.BluRay.1080p.x265.10bit.FLAC.L-MiniHD 9.07GB

版主小s 3月前 195

✔资源类型:暂未分类   ✔电影年份:更 早   ✔电影地区:欧美   ✔电影分类:剧情

◎译  名 荒漠怪客 / 琴侠恩仇记(港) / 游侠神枪 / 吉他手约翰尼
◎片  名 Johnny Guitar
◎年  代 1954
◎产  地 美国
◎类  别 剧情 / 西部
◎语  言 英语
◎上映日期 1954-05-05(洛杉矶首映) / 1954-08-23(美国)
◎IMDb链接 https://www.imdb.com/title/tt0047136/
◎豆瓣评分 7.9/10 (2683人评价)
◎豆瓣链接 https://movie.douban.com/subject/1303575/
◎片  长 110 分钟
◎导  演 尼古拉斯·雷 Nicholas Ray (id:1022811)
◎编  剧 菲利普·约尔丹 Philip Yordan (id:1003507)
       罗伊·尚斯洛尔 Roy Chanslor (id:1051845)
       本·马多 Ben Maddow (id:1025540)
       尼古拉斯·雷 Nicholas Ray (id:1022811)
◎演  员 琼·克劳馥 Joan Crawford (id:1002684)
       斯特林·海登 Sterling Hayden (id:1002760)
       梅赛德丝·麦坎布雷奇 Mercedes McCambridge (id:1032121)
       斯科特·布兰迪 Scott Brady (id:1049977)
       沃德·邦德 Ward Bond (id:1002795)
       本·库珀 Ben Cooper (id:1027586)
       欧内斯特·博格宁 Ernest Borgnine (id:1007005)
       约翰·卡拉丁 John Carradine (id:1054224)
       罗亚尔·达诺 Royal Dano (id:1090287)
       弗兰克·弗格森 Frank Ferguson (id:1082491)
       保罗·菲克斯 Paul Fix (id:1054305)
       里斯·威廉姆斯 Rhys Williams (id:1163348)
       伊恩·麦克唐纳 Ian MacDonald (id:1012638)
       特雷弗·巴德特 Trevor Bardette (id:1062871)
       George Bell George Bell (id:1066470)
       Bob Burrows Bob Burrows (id:1070323)
       奇克·汉南 Chick Hannan (id:1093653)
       法兰克·马洛 Frank Marlowe (id:1124276)
       Jack Montgomery Jack Montgomery (id:1123550)
       罗伯特·奥斯特洛 Robert Osterloh (id:1136338)
       丹佛·派尔 Denver Pyle (id:1048219)
       Rocky Shahan Rocky Shahan (id:1147188)
       谢布·伍利 Sheb Wooley (id:1164353)
       威尔·赖特 Will Wright (id:1167155)
       尼古拉斯·雷 Nicholas Ray (id:1022811)
       Herbert J. Yates Herbert J. Yates (id:1051444)
       维克多·杨 Victor Young (id:1055169)
       老哈里·斯特拉德林 Harry Stradling Sr. (id:1051097)
       理查德·L·范·恩格尔 Richard L. Van Enger (id:1020851)
       爱德华·G·博伊尔 Edward G. Boyle (id:1069110)
       詹姆斯·W·沙利文 James W. Sullivan (id:1012899)
       小约翰·麦卡西 John McCarthy Jr. (id:1291449)
       谢拉·奥布莱恩 Sheila O'Brien (id:1027683)
       Bob Mark Bob Mark (id:1124671)
       Herbert E. Mendelson Herbert E. Mendelson (id:1031243)

◎简  介
  本片的故事发生于美国西部的一个小镇,一个名叫威伊纳德女士在镇子外面设立了一个非常庞大的沙龙。她希望一旦铁路修通并从这个小镇穿过的话,她就能都把自己的沙龙改造成为一个自己的镇子。但是这个小镇上的人们只知道她怀有这样一种想法,非常想要她离开这里。有一天,有四个男人驾驶一辆四轮马车杀死了一个人。几个政府官员,在一个名叫埃玛·斯摩尔的头目的带领下,来到这个巨型沙龙,想要抓住那个杀人的人。这四个人正是威伊娜德的朋友。威伊娜德强烈地反对这些官员这样做,就在僵持不下的时候,威伊娜德的一个朋友,强尼·古塔尔出现了……
  1. ##### MediaInfo ######
  2. General
  3. Unique ID                                : 144932491765626344333903087522250406993 (0x6D08FB8A671770628F551FAAB2E6BC51)
  4. Complete name                            : Johnny.Guitar.1954.BluRay.1080p.x265.10bit.FLAC.L-MiniHD.mkv
  5. Format                                   : Matroska
  6. Format version                           : Version 4
  7. File size                                : 9.07 GiB
  8. Duration                                 : 1 h 49 min
  9. Overall bit rate mode                    : Variable
  10. Overall bit rate                         : 11.8 Mb/s
  11. Movie name                               : Johnny Guitar (1954) BluRay 1080p - FRDS
  12. Encoded date                             : UTC 2022-06-14 06:08:41
  13. Writing application                      : mkvmerge v68.0.0 ('The Curtain') 64-bit
  14. Writing library                          : libebml v1.4.2 + libmatroska v1.6.4
  15. Video
  16. ID                                       : 1
  17. Format                                   : HEVC
  18. Format/Info                              : High Efficiency Video Coding
  19. Format profile                           : Main 10@L5.1@High
  20. Codec ID                                 : V_MPEGH/ISO/HEVC
  21. Duration                                 : 1 h 49 min
  22. Bit rate                                 : 11.1 Mb/s
  23. Width                                    : 1 796 pixels
  24. Height                                   : 1 080 pixels
  25. Display aspect ratio                     : 5:3
  26. Frame rate mode                          : Constant
  27. Frame rate                               : 23.976 (24000/1001/53354) FPS
  28. Color space                              : YUV
  29. Chroma subsampling                       : 4:2:0
  30. Bit depth                                : 10 bits
  31. Bits/(Pixel*Frame)                       : 0.239
  32. Stream size                              : 8.55 GiB (94%)
  33. Writing library                          : x265 3.5+36-9b59d4554:[Windows][MSVC 1931][64 bit] 10bit
  34. Encoding settings                        : cpuid=533541111039 / frame-threads=5 / numa-pools=20,20 / wpp / pmode / no-pme / no-psnr / no-ssim / log-level=2 / input-csp=1 / input-res=1796x1080 / interlace=0 / total-frames=158194 / level-idc=51 / high-tier=1 / uhd-bd=0 / ref=5 / no-allow-non-conformance / no-repeat-headers / annexb / no-aud / no-eob / no-eos / no-hrd / info / hash=0 / no-temporal-layers / no-open-gop / min-keyint=1 / keyint=250 / gop-lookahead=0 / bframes=8 / b-adapt=2 / b-pyramid / bframe-bias=0 / rc-lookahead=100 / lookahead-slices=0 / NTMzNTQ=uuDQuD2mJt9fsCf / scenecut=40 / no-hist-scenecut / radl=0 / no-splice / no-intra-refresh / ctu=32 / min-cu-size=8 / no-rect / no-amp / max-tu-size=32 / tu-inter-depth=4 / tu-intra-depth=4 / limit-tu=0 / rdoq-level=2 / dynamic-rd=0.00 / no-ssim-rd / signhide / tskip / nr-intra=0 / nr-inter=0 / no-constrained-intra / no-strong-intra-smoothing / max-merge=5 / limit-refs=0 / no-limit-modes / me=3 / subme=7 / merange=57 / temporal-mvp / no-frame-dup / no-hme / weightp / weightb / no-analyze-src-pics / deblock=-3:-3 / no-sao / no-sao-non-deblock / rd=4 / selective-sao=0 / no-early-skip / no-rskip / no-fast-intra / no-tskip-fast / no-cu-lossless / b-intra / no-splitrd-skip / rdpenalty=0 / psy-rd=1.50 / psy-rdoq=1.00 / no-rd-refine / no-lossless / cbqpoffs=-2 / crqpoffs=-2 / rc=crf / crf=22.5 / qcomp=0.65 / qpstep=4 / stats-write=0 / stats-read=0 / vbv-maxrate=160000 / vbv-bufsize=160000 / vbv-init=0.9 / min-vbv-fullness=50.0 / max-vbv-fullness=80.0 / crf-max=0.0 / crf-min=0.0 / ipratio=1.30 / pbratio=1.20 / aq-mode=1 / aq-strength=1.00 / no-cutree / zone-count=0 / no-strict-cbr / qg-size=8 / no-rc-grain / qpmax=69 / qpmin=0 / no-const-vbv / sar=0 / overscan=0 / videoformat=5 / range=0 / colorprim=1 / transfer=1 / colormatrix=1 / chromaloc=0 / display-window=0 / cll=0,0 / min-luma=0 / max-luma=1023 / log2-max-poc-lsb=8 / vui-timing-info / vui-hrd-info / slices=1 / no-opt-qp-pps / no-opt-ref-list-length-pps / no-multi-pass-opt-rps / scenecut-bias=0.05 / hist-threshold=0.03 / no-opt-cu-delta-qp / no-aq-motion / no-hdr10 / no-hdr10-opt / no-dhdr10-opt / no-idr-recovery-sei / analysis-reuse-level=0 / analysis-save-reuse-level=0 / analysis-load-reuse-level=0 / scale-factor=0 / refine-intra=0 / refine-inter=0 / refine-mv=1 / refine-ctu-distortion=0 / no-limit-sao / ctu-info=0 / no-lowpass-dct / refine-analysis-type=0 / copy-pic=1 / max-ausize-factor=1.0 / no-dynamic-refine / no-single-sei / no-hevc-aq / no-svt / no-field / qp-adaptation-range=1.00 / scenecut-aware-qp=0conformance-window-offsets / right=0 / bottom=0 / NTMzNTQ= / decoder-max-rate=0 / no-vbv-live-multi-pass
  35. Default                                  : Yes
  36. Forced                                   : No
  37. Color range                              : Limited
  38. Color primaries                          : BT.709
  39. Transfer characteristics                 : BT.709
  40. Matrix coefficients                      : BT.709
  41. Audio #1
  42. ID                                       : 2
  43. Format                                   : FLAC
  44. Format/Info                              : Free Lossless Audio Codec
  45. Codec ID                                 : A_FLAC
  46. Duration                                 : 1 h 49 min
  47. Bit rate mode                            : Variable
  48. Bit rate                                 : 549 kb/s
  49. Channel(s)                               : 2 channels
  50. Channel layout                           : L R
  51. Sampling rate                            : 48.0 kHz
  52. Frame rate                               : 11.719 FPS (4096 SPF)
  53. Bit depth                                : 24 bits
  54. Compression mode                         : Lossless
  55. Stream size                              : 431 MiB (5%)
  56. Title                                    : FLAC Audio / 2.0 / 48 kHz / 549 kbps / 24-bit
  57. Writing library                          : libFLAC 1.2.1 (UTC 2007-09-17)
  58. Language                                 : English
  59. Default                                  : Yes
  60. Forced                                   : No
  61. Audio #2
  62. ID                                       : 3
  63. Format                                   : Opus
  64. Codec ID                                 : A_OPUS
  65. Duration                                 : 1 h 49 min
  66. Bit rate                                 : 58.0 kb/s
  67. Channel(s)                               : 2 channels
  68. Channel layout                           : L R
  69. Sampling rate                            : 48.0 kHz
  70. Frame rate                               : 50.000 FPS (960 SPF)
  71. Compression mode                         : Lossy
  72. Stream size                              : 45.6 MiB (0%)
  73. Title                                    : Commentary with Historian and Critic Geoff Andrew
  74. Writing library                          : opusenc from opus-tools 0.2-3-gf5f571b
  75. Language                                 : English
  76. Default                                  : No
  77. Forced                                   : No
  78. ENCODER_OPTIONS                          : --bitrate 64
  79. Text #1
  80. ID                                       : 4
  81. Format                                   : PGS
  82. Muxing mode                              : zlib
  83. Codec ID                                 : S_HDMV/PGS
  84. Codec ID/Info                            : Picture based subtitle format used on BDs/HD-DVDs
  85. Duration                                 : 1 h 49 min
  86. Bit rate                                 : 26.1 kb/s
  87. Count of elements                        : 2010
  88. Stream size                              : 20.4 MiB (0%)
  89. Title                                    : CHS
  90. Language                                 : Chinese
  91. Default                                  : Yes
  92. Forced                                   : No
  93. Text #2
  94. ID                                       : 5
  95. Format                                   : PGS
  96. Muxing mode                              : zlib
  97. Codec ID                                 : S_HDMV/PGS
  98. Codec ID/Info                            : Picture based subtitle format used on BDs/HD-DVDs
  99. Duration                                 : 1 h 49 min
  100. Bit rate                                 : 27.3 kb/s
  101. Count of elements                        : 2010
  102. Stream size                              : 21.4 MiB (0%)
  103. Title                                    : CHT
  104. Language                                 : Chinese
  105. Default                                  : Yes
  106. Forced                                   : No
  107. Text #3
  108. ID                                       : 6
  109. Format                                   : PGS
  110. Muxing mode                              : zlib
  111. Codec ID                                 : S_HDMV/PGS
  112. Codec ID/Info                            : Picture based subtitle format used on BDs/HD-DVDs
  113. Duration                                 : 1 h 49 min
  114. Bit rate                                 : 66.5 kb/s
  115. Count of elements                        : 3069
  116. Stream size                              : 52.3 MiB (1%)
  117. Language                                 : English
  118. Default                                  : No
  119. Forced                                   : No
  120. Menu
  121. 00:00:10.928                             : en:Opening Credits
  122. 00:09:06.463                             : en:"We want the Dancin' kid"
  123. 00:23:14.518                             : en:"Put a lot of love in it"
  124. 00:33:12.032                             : en:Gun Crazy
  125. 00:42:13.573                             : en:"Lie to me"
  126. 00:47:50.576                             : en:The Holdup
  127. 00:57:26.401                             : en:Run for cover
  128. 01:12:43.609                             : en:"Save Yourself"
  129. 01:30:12.991                             : en:Through the waterfall
  130. 01:44:55.456                             : en:"I'm comin' up, Vienna!"





此处一般会放置磁力链或种子下载链接,不过此链接需要注册会员才能看到,点击“立即注册”
磁力链下载【下载链接仅对注册会员开放,登陆后可见】
BT9527电影天堂 1、BT9527电影天堂提供的BT文件均来源于互联网抓取,只供网友学习交流、技术提升使用。
2、我们遵守BitTorrent点对点协议原则,任何版权问题请联系原资源发布商,我们不处理任何版权纠纷,谢谢!如有争议请联系邮箱:BT9527#hotmail.com(#换成@)
3、如果您发现某页面或地址有错误,请联系站长邮箱BT9527#hotmail.com(#换成@),我们会尽快处理。您的热心是对BT9527电影天堂最大的支持。
4、本站建议去正规影院观看电影以支持电影行业发展。
最新回复 (0)

你可以在 登录 or 注册 后,对此帖发表评论!

返回