精灵鼠小弟[简英字幕].Stuart.Little.1999.BluRay.1080p.x265.10bit.DDP5.1-MiniHD 5.26GB

版主小s 10天前 67

✔资源类型:暂未分类   ✔电影年份:更 早   ✔电影地区:欧美   ✔电影分类:喜剧

◎译  名 精灵鼠小弟 / 一家之鼠超力仔(港) / 一家之鼠(台) / 一家之鼠小史都华
◎片  名 Stuart Little
◎年  代 1999
◎产  地 美国 / 德国
◎类  别 喜剧 / 家庭 / 奇幻 / 冒险
◎语  言 英语 / 荷兰语
◎上映日期 2000-02-16(中国大陆) / 1999-12-05(美国首映)
◎IMDb链接 https://www.imdb.com/title/tt0164912/
◎豆瓣评分 7.7/10 (137621人评价)
◎豆瓣链接 https://movie.douban.com/subject/1295242/
◎片  长 84分钟
◎导  演 罗伯·明可夫 Rob Minkoff (id:1292171)
◎编  剧 M·奈特·沙马兰 M. Night Shyamalan (id:1022570)
       格雷戈·布鲁克 Greg Brooker (id:1279380)
◎演  员 迈克尔·J·福克斯 Michael J. Fox (id:1017895)
       吉娜·戴维斯 Geena Davis (id:1006979)
       休·劳瑞 Hugh Laurie (id:1109531)
       乔纳森·利普尼基 Jonathan Lipnicki (id:1027266)
       内森·连恩 Nathan Lane (id:1007022)
       布鲁诺·柯比 Bruno Kirby (id:1048184)
       斯蒂夫·扎恩 Steve Zahn (id:1035639)
       杰弗瑞·琼斯 Jeffrey Jones (id:1027832)
       詹妮弗·提莉 Jennifer Tilly (id:1049519)
       查兹·帕尔明特瑞 Chazz Palminteri (id:1048183)
       沈晓谦 Xiaoqian Shen (id:1347970)
       海尔德·高德 Harold Gould (id:1036603)
       艾斯黛拉·格蒂 Estelle Getty (id:1054637)
       道格拉斯·威克 Douglas Wick (id:1300860)
       亚伦·史维斯查 Alan Silvestri (id:1002819)
       吉列尔莫·纳瓦罗 Guillermo Navarro (id:1292948)
       黛布拉·赞恩 Debra Zane (id:1301623)
       比尔·布鲁茨基 Bill Brzeski (id:1279534)
       Clay A. Griffith Clay A. Griffith (id:1285467)
       Joseph A. Porro Joseph A. Porro (id:1294749)
       Beth Miller Beth Miller (id:1292062)
       Bonita DeHaven Bonita DeHaven (id:1282150)
       敏迪·霍尔 Mindy Hall (id:1285857)
       大卫·绍布 David Schaub (id:1296830)
       Alfred Mürrle Alfred Mürrle (id:1292790)
       Craig A. Mumma Craig A. Mumma (id:1292701)
       米歇尔·莫恩 Michele Moen (id:1292270)
       内尔森·塞普维达 Nelson Sepulveda (id:1297217)
       塞斯·毛里 Seth Maury (id:1291336)
       John Clark Matthews John Clark Matthews (id:1291301)
       Kevin Hudson Kevin Hudson (id:1287090)
       Layne Friedman Layne Friedman (id:1284220)
       David A. Smith David A. Smith (id:1297867)
       Van Phan Van Phan (id:1299853)
       托尔·弗罗伊登塔尔 Thor Freudenthal (id:1327056)
       彼得·诺弗兹 Peter Nofz (id:1305797)
       Cyndi Ochs Cyndi Ochs (id:1305788)
       Dominick Cecere Dominick Cecere (id:1305777)
       John Hart John Hart (id:1304897)
       Leif Einarsson Leif Einarsson (id:1303968)
       曼尼·王 Manny Wong (id:1301196)
       杰夫·沃尔弗顿 Jeff Wolverton (id:1301169)
       比尔·凯斯滕豪佛 Bill Westenhofer (id:1300741)
       David Emery David Emery (id:1283180)
       Daniel Eaton Daniel Eaton (id:1282952)
       科林·德罗布尼斯 Colin Drobnis (id:1282732)
       Debbie Denise Debbie Denise (id:1276381)
       罗宾·格里芬 Robin Griffin (id:1276684)
       埃里克·阿姆斯特朗 Eric Armstrong (id:1277405)
       杰奎·巴恩布鲁克 Jacquie Barnbrook (id:1277948)
       吉姆·伯尔尼  Jim Berney (id:1278488)
       莱斯·伯恩斯汀 Les Bernstien (id:1278498)
       Lydia Bottegoni Lydia Bottegoni (id:1279044)
       罗布·布雷多 Rob Bredow (id:1279230)
       琳达·德雷克 Linda Drake (id:1282708)
       Greg Derochie Greg Derochie (id:1282272)
       埃里克·德·波尔 Erik De Boer (id:1281992)
       杰罗姆·陈 Jerome Chen (id:1280567)
       Aaron Campbell Aaron Campbell (id:1279950)

◎简  介
  9岁的乔治这天迎来了一个弟弟——小白鼠斯图亚特。这是他爸爸妈妈从孤儿院领回来的可爱精灵,会说话,有智慧,并且很希望有自己的家。然而,乔治却不喜欢斯图亚特,不愿意和他作伴。斯图亚特为此颇为犯愁。更令它处境不妙的是,它成为了肥猫眼中的佳肴,在虎视眈眈下过着冒险的生活。                                    
                                乔治参加了一个航模赛,但是他却一路遭到挫折,先是父亲没能帮他做好模型,当模型好不容易做成了,遥控器却在比赛那天被别人踩坏。在乔治每一次陷入困难的时候,正是斯图亚特机敏勇敢的出手相助,让乔治顺利过关。斯图亚特努力的付出,终于被小乔治接纳,这只小白鼠在乔治家中得到了温暖的归属。

◎获奖情况 (共4项)
  第72届奥斯卡金像奖 (2000)
  最佳视觉效果(提名)

  第28届动画安妮奖 (2000)
  最佳编剧(提名)
  最佳动画角色(提名)
   └──肖恩·穆伦 (id:1292691)
  最佳动画效果(提名)
   └──罗布·布雷多 (id:1279230)

  1. ##### MediaInfo ######
  2. General
  3. Unique ID                                : 100234287199530808352831504454833341168 (0x4B686BE88CEBFEB599A7CEC3A7FF02F0)
  4. Complete name                            : Stuart.Little.1999.BluRay.1080p.x265.10bit.DDP5.1-MiniHD.mkv
  5. Format                                   : Matroska
  6. Format version                           : Version 4
  7. File size                                : 5.26 GiB
  8. Duration                                 : 1 h 24 min
  9. Overall bit rate                         : 8 904 kb/s
  10. Encoded date                             : UTC 2022-06-15 12:59:23
  11. Writing application                      : mkvmerge v68.0.0 ('The Curtain') 64-bit
  12. Writing library                          : libebml v1.4.2 + libmatroska v1.6.4
  13. Video
  14. ID                                       : 1
  15. Format                                   : HEVC
  16. Format/Info                              : High Efficiency Video Coding
  17. Format profile                           : Main 10@L5@High
  18. Codec ID                                 : V_MPEGH/ISO/HEVC
  19. Duration                                 : 1 h 24 min
  20. Bit rate                                 : 7 844 kb/s
  21. Width                                    : 1 920 pixels
  22. Height                                   : 1 038 pixels
  23. Display aspect ratio                     : 1.85:1
  24. Frame rate mode                          : Constant
  25. Frame rate                               : 23.976 (24000/1001/53354) FPS
  26. Color space                              : YUV
  27. Chroma subsampling                       : 4:2:0
  28. Bit depth                                : 10 bits
  29. Bits/(Pixel*Frame)                       : 0.164
  30. Stream size                              : 4.64 GiB (88%)
  31. Writing library                          : x265 3.5+20-17839cc0d:[Windows][GCC 11.2.0][64 bit] 10bit
  32. Encoding settings                        : cpuid=533541111039 / frame-threads=5 / numa-pools=24,24 / wpp / no-pmode / no-pme / no-psnr / no-ssim / log-level=2 / input-csp=1 / input-res=1920x1038 / interlace=0 / total-frames=121704 / level-idc=0 / high-tier=1 / uhd-bd=0 / ref=5 / no-allow-non-conformance / no-repeat-headers / annexb / no-aud / no-eob / no-eos / no-hrd / info / hash=0 / no-temporal-layers / no-open-gop / min-keyint=23 / keyint=250 / gop-lookahead=0 / bframes=9 / b-adapt=2 / b-pyramid / bframe-bias=0 / rc-lookahead=60 / lookahead-slices=0 / NTMzNTQ=uuDQuD2mJt9fsCf / scenecut=40 / no-hist-scenecut / radl=0 / no-splice / no-intra-refresh / ctu=32 / min-cu-size=8 / no-rect / no-amp / max-tu-size=32 / tu-inter-depth=4 / tu-intra-depth=4 / limit-tu=0 / rdoq-level=2 / dynamic-rd=0.00 / no-ssim-rd / signhide / no-tskip / nr-intra=0 / nr-inter=0 / no-constrained-intra / no-strong-intra-smoothing / max-merge=5 / limit-refs=0 / no-limit-modes / me=3 / subme=5 / merange=57 / temporal-mvp / no-frame-dup / no-hme / weightp / weightb / no-analyze-src-pics / deblock=-1:-1 / no-sao / no-sao-non-deblock / rd=4 / selective-sao=0 / no-early-skip / no-rskip / no-fast-intra / no-tskip-fast / no-cu-lossless / b-intra / no-splitrd-skip / rdpenalty=0 / psy-rd=2.00 / psy-rdoq=5.00 / no-rd-refine / no-lossless / cbqpoffs=0 / crqpoffs=0 / rc=crf / crf=22.5 / qcomp=0.70 / qpstep=4 / stats-write=0 / stats-read=0 / vbv-maxrate=100000 / vbv-bufsize=100000 / vbv-init=0.9 / min-vbv-fullness=50.0 / max-vbv-fullness=80.0 / crf-max=0.0 / crf-min=0.0 / ipratio=1.40 / pbratio=1.30 / aq-mode=1 / aq-strength=0.90 / no-cutree / zone-count=0 / no-strict-cbr / qg-size=32 / no-rc-grain / qpmax=69 / qpmin=0 / no-const-vbv / sar=0 / overscan=0 / videoformat=5 / range=0 / colorprim=1 / transfer=1 / colormatrix=1 / chromaloc=0 / display-window=0 / cll=0,0 / min-luma=0 / max-luma=1023 / log2-max-poc-lsb=8 / vui-timing-info / vui-hrd-info / slices=1 / no-opt-qp-pps / no-opt-ref-list-length-pps / no-multi-pass-opt-rps / scenecut-bias=0.05 / hist-threshold=0.03 / no-opt-cu-delta-qp / no-aq-motion / no-hdr10 / no-hdr10-opt / no-dhdr10-opt / no-idr-recovery-sei / analysis-reuse-level=0 / analysis-save-reuse-level=0 / analysis-load-reuse-level=0 / scale-factor=0 / refine-intra=0 / refine-inter=0 / refine-mv=1 / refine-ctu-distortion=0 / no-limit-sao / ctu-info=0 / no-lowpass-dct / refine-analysis-type=0 / copy-pic=1 / max-ausize-factor=1.0 / no-dynamic-refine / no-single-sei / no-hevc-aq / no-svt / no-field / qp-adaptation-range=1.00 / scenecut-aware-qp=0conformance-window-offsets / right=0 / bottom=0 / NTMzNTQ= / decoder-max-rate=0 / no-vbv-live-multi-pass
  33. Default                                  : Yes
  34. Forced                                   : No
  35. Color range                              : Limited
  36. Color primaries                          : BT.709
  37. Transfer characteristics                 : BT.709
  38. Matrix coefficients                      : BT.709
  39. Audio
  40. ID                                       : 2
  41. Format                                   : E-AC-3
  42. Format/Info                              : Enhanced AC-3
  43. Commercial name                          : Dolby Digital Plus
  44. Codec ID                                 : A_EAC3
  45. Duration                                 : 1 h 24 min
  46. Bit rate mode                            : Constant
  47. Bit rate                                 : 1 024 kb/s
  48. Channel(s)                               : 6 channels
  49. Channel layout                           : L R C LFE Ls Rs
  50. Sampling rate                            : 48.0 kHz
  51. Frame rate                               : 31.250 FPS (1536 SPF)
  52. Compression mode                         : Lossy
  53. Stream size                              : 620 MiB (11%)
  54. Language                                 : English
  55. Service kind                             : Complete Main
  56. Default                                  : Yes
  57. Forced                                   : No
  58. Text #1
  59. ID                                       : 3
  60. ID in the original source medium         : 4630 (0x1216)
  61. Format                                   : PGS
  62. Muxing mode                              : zlib
  63. Codec ID                                 : S_HDMV/PGS
  64. Codec ID/Info                            : Picture based subtitle format used on BDs/HD-DVDs
  65. Duration                                 : 1 h 17 min
  66. Bit rate                                 : 39.1 kb/s
  67. Count of elements                        : 2224
  68. Stream size                              : 21.8 MiB (0%)
  69. Title                                    : chs
  70. Language                                 : Chinese
  71. Default                                  : Yes
  72. Forced                                   : No
  73. Original source medium                   : Blu-ray
  74. Text #2
  75. ID                                       : 4
  76. ID in the original source medium         : 4608 (0x1200)
  77. Format                                   : PGS
  78. Muxing mode                              : zlib
  79. Codec ID                                 : S_HDMV/PGS
  80. Codec ID/Info                            : Picture based subtitle format used on BDs/HD-DVDs
  81. Duration                                 : 1 h 17 min
  82. Bit rate                                 : 37.2 kb/s
  83. Count of elements                        : 2225
  84. Stream size                              : 20.7 MiB (0%)
  85. Language                                 : English
  86. Default                                  : No
  87. Forced                                   : No
  88. Original source medium                   : Blu-ray
  89. Menu
  90. 00:00:00.000                             : en:Chapter01
  91. 00:06:37.313                             : en:Chapter02
  92. 00:10:36.469                             : en:Chapter03
  93. 00:16:26.610                             : en:Chapter04
  94. 00:21:02.052                             : en:Chapter05
  95. 00:27:26.603                             : en:Chapter06
  96. 00:31:27.635                             : en:Chapter07
  97. 00:37:06.182                             : en:Chapter08
  98. 00:42:30.089                             : en:Chapter09
  99. 00:45:26.140                             : en:Chapter10
  100. 00:51:05.520                             : en:Chapter11
  101. 00:55:42.797                             : en:Chapter12
  102. 00:59:59.804                             : en:Chapter13
  103. 01:04:10.471                             : en:Chapter14
  104. 01:09:52.771                             : en:Chapter15
  105. 01:13:29.613                             : en:Chapter16





此处一般会放置磁力链或种子下载链接,不过此链接需要注册会员才能看到,点击“立即注册”
磁力链下载【下载链接仅对注册会员开放,登陆后可见】
BT9527电影天堂 1、BT9527电影天堂提供的BT文件均来源于互联网抓取,只供网友学习交流、技术提升使用。
2、我们遵守BitTorrent点对点协议原则,任何版权问题请联系原资源发布商,我们不处理任何版权纠纷,谢谢!如有争议请联系邮箱:BT9527#hotmail.com(#换成@)
3、如果您发现某页面或地址有错误,请联系站长邮箱BT9527#hotmail.com(#换成@),我们会尽快处理。您的热心是对BT9527电影天堂最大的支持。
4、本站建议去正规影院观看电影以支持电影行业发展。
最新回复 (0)

你可以在 登录 or 注册 后,对此帖发表评论!

返回