扎克·施奈德版正义联盟[杜比视界版本][简繁英字幕].Zack.Snyders.Justice.League.2021.UHD.BluRay.2160p.x265.DV.HDR.TrueHD.Atmos-MiniHD 31.25GB

版主小s 7天前 76

✔资源类型:BD-4K   ✔电影年份:2021   ✔电影地区:欧美   ✔电影分类:动作

◎译  名 扎克·施奈德版正义联盟 / 正义联盟:扎克·施耐德版 / 萨克·薛达之正义联盟(港) / 查克·史奈德之正义联盟(台) / 正义联盟导演剪辑版 / 正义联盟 扎克·施奈德导演剪辑版 / Justice League Snyder Cut
◎片  名 Zack Snyder's Justice League
◎年  代 2021
◎产  地 美国
◎类  别 动作 / 科幻 / 奇幻 / 冒险
◎语  言 英语
◎上映日期 2021-05-03(中国大陆网络) / 2021-03-18(美国)
◎IMDb链接 https://www.imdb.com/title/tt12361974/
◎豆瓣评分 8.1/10 (277927人评价)
◎豆瓣链接 https://movie.douban.com/subject/35076714/
◎片  长 242分钟
◎导  演 扎克·施奈德 Zack Snyder (id:1031904)
◎编  剧 扎克·施奈德 Zack Snyder (id:1031904)
       克里斯·特里奥 Chris Terrio (id:1014758)
       威尔·比尔 Will Beall (id:1326235)
       杰里·西格尔 Jerry Siegel (id:1028138)
       乔·舒斯特 Joe Shuster (id:1010444)
◎演  员 本·阿弗莱克 Ben Affleck (id:1054417)
       亨利·卡维尔 Henry Cavill (id:1044713)
       盖尔·加朵 Gal Gadot (id:1044996)
       杰森·莫玛 Jason Momoa (id:1022614)
       埃兹拉·米勒 Ezra Miller (id:1313037)
       雷·费舍尔 Ray Fisher (id:1340350)
       艾米·亚当斯 Amy Adams (id:1022563)
       威廉·达福 Willem Dafoe (id:1010539)
       杰西·艾森伯格 Jesse Eisenberg (id:1027144)
       杰瑞米·艾恩斯 Jeremy Irons (id:1031216)
       戴安·琳恩 Diane Lane (id:1053615)
       康妮·尼尔森 Connie Nielsen (id:1009298)
       J·K·西蒙斯 J.K. Simmons (id:1147911)
       塞伦·希德 Ciarán Hinds (id:1004586)
       郑恺 Kai Zheng (id:1275564)
       艾梅柏·希尔德 Amber Heard (id:1044702)
       乔·莫顿 Joe Morton (id:1027892)
       丽莎·洛文·孔斯利 Lisa Loven Kongsli (id:1346489)
       大卫·休里斯 David Thewlis (id:1031862)
       安·奥戈博莫 Ann Ogbomo (id:1374913)
       奥古斯塔·艾娃·艾伦德斯杜提尔 ágústa Eva Erlendsdóttir (id:1245956)
       克里斯特比约格·凯尔德 Kristbj?rg Kjeld (id:1103502)
       英格瓦·埃盖特·西古德松 Ingvar Eggert Siguresson (id:1041279)
       马克·麦克卢尔 Marc McClure (id:1118597)
       迈克尔·麦克埃尔哈顿 Michael McElhatton (id:1291550)
       约翰·达格尔什 John Dagleish (id:1414360)
       拉腊·德坎罗 Lara Decaro (id:1358104)
       罗比·基 Robbie Gee (id:1098633)
       吉姆·斯图格恩 Jim Sturgeon (id:1340238)
       杜晨·科洛斯 Doutzen Kroes (id:1004790)
       埃莉诺·松浦 Eleanor Matsuura (id:1342338)
       萨曼莎·乔 Samantha Win (id:1330077)
       布鲁克·恩斯 Brooke Ence (id:1386449)
       杰罗姆·普拉顿 Jér?me Pradon (id:1130752)
       理查德·克里弗特 Richard Clifford (id:1329032)
       文森特·里奥特 Vincent Riotta (id:1342776)
       马克·阿诺德 Mark Arnold (id:1057556)
       彼得·吉尼斯 Peter Guinness (id:1348295)
       赛吉·康斯坦斯 Sergi Constance (id:1384665)
       奥萝尔·劳泽瑞尔 Aurore Lauzeral (id:1430280)
       朱利安·刘易斯·琼斯 Julian Lewis Jones (id:1343985)
       雷·波特 Ray Porter (id:1452108)
       弗朗西斯·麦基 Francis Magee (id:1348592)
       科雷西·克莱门斯 Kiersey Clemons (id:1337761)
       露西·布莱尔斯 Lucy Briers (id:1068476)
       威尔·柯班 Wil Coban (id:1398119)
       凯伦·布莱森 Karen Bryson (id:1382874)
       克里斯蒂·梅尔 Christy Meyer (id:1380912)
       吉安皮罗·科格诺利 Gianpiero Cognoli (id:1348637)
       寇布勒·霍尔德布鲁克-史密斯 Kobna Holdbrook-Smith (id:1346131)
       凯文·马图林 Kevin Mathurin (id:1443688)
       泰勒·詹姆斯 Taylor James (id:1252725)
       布鲁斯·钟 Bruce Chong (id:1388523)
       奥赖恩·李 Orion Lee (id:1429493)
       奥利弗·加茨 Oliver Gatz (id:1356268)
       凯莉·波尔克 Kelly Burke (id:1356703)
       奥利弗·鲍威尔 Oliver Powell (id:1251812)
       哈里·列尼斯 Harry Lennix (id:1125121)
       欧米·罗斯 Omri Rose (id:1390160)
       萨姆·本杰明 Sam Benjamin (id:1443679)
       卡拉·古奇诺 Carla Gugino (id:1049495)
       罗素·克劳 Russell Crowe (id:1016674)
       扎克·施奈德 Zack Snyder (id:1031904)
       杰瑞德·莱托 Jared Leto (id:1013764)
       罗宾·怀特 Robin Wright (id:1002676)
       比利·克鲁德普 Billy Crudup (id:1009265)
       乔·曼根尼罗 Joe Manganiello (id:1013768)
       斯沃里·拉格纳内 Swaylee Loughnane (id:1452116)
       安德鲁·G·奥格尔比 Andrew G. Ogleby (id:1452110)
       山姆·威克斯 Sam Weeks (id:1452105)
       Salóme Gunnarsdóttir Salóme Gunnarsdóttir (id:1454046)
       本·阿弗莱克 Ben Affleck (id:1054417)
       韦斯利·柯勒 Wesley Coller (id:1441526)
       科特·金元 Curt Kanemoto (id:1391578)
       克里斯托弗·诺兰 Christopher Nolan (id:1054524)
       查尔斯·罗文 Charles Roven (id:1023082)
       黛博拉·施奈德 Deborah Snyder (id:1375247)
       克里斯·特里奥 Chris Terrio (id:1014758)
       艾玛·托马斯 Emma Thomas (id:1299145)
       琼基·XL Junkie XL (id:1037776)
       费边·瓦格纳 Fabian Wagner (id:1337722)
       大卫·布伦纳 David Brenner (id:1279253)
       多迪·道恩 Dody Dorn (id:1002946)
       帕特里克·塔特普洛斯 Patrick Tatopoulos (id:1298949)
       迈克尔·威尔金森 Michael Wilkinson (id:1300947)
       劳伦·哈达威 Lauren Hadaway (id:1465281)

◎简  介
  布鲁斯·韦恩(本·阿弗莱克饰)为了确保不让超人(亨利·卡维尔饰)白白牺牲,他决定与戴安娜·普林斯(盖尔·加朵饰)联手并计划招募一支超能力者团队来保护世界免遭即将到来的灾难性威胁。但这项任务比布鲁斯想象中要困难,因为每位成员都必须面对并跨越自己过去的心魔,团结起来,最终形成一个前所未有的英雄联盟。 蝙蝠侠、神奇女侠、海王(杰森·莫玛饰)、钢骨(雷·费舍饰)、闪电侠(埃兹拉·米勒饰)现在必须联合起来,否则就无法阻止荒原狼(塞伦·希德饰)、狄萨德(彼得·吉尼斯饰)以及达克赛德(雷·波特饰)毁灭地球的可怕计划。
  1. ##### MediaInfo ######
  2. General
  3. Unique ID                                : 108240475850671646662308608099028241681 (0x516E5B7C2D85C5A0BBC42E2908BB0D11)
  4. Complete name                            : Zack.Snyders.Justice.League.2021.UHD.BluRay.2160p.x265.DV.HDR.TrueHD.Atmos-MiniHD.mkv
  5. Format                                   : Matroska
  6. Format version                           : Version 4
  7. File size                                : 31.2 GiB
  8. Duration                                 : 4 h 2 min
  9. Overall bit rate mode                    : Variable
  10. Overall bit rate                         : 18.5 Mb/s
  11. Movie name                               : Zack.Snyders.Justice.League.2021.UHD.BluRay.2160p.x265.DV.HDR.TrueHD.Atmos.mUHD-FRDS
  12. Encoded date                             : UTC 2022-05-28 15:11:57
  13. Writing application                      : mkvmerge v66.0.0 ('Josie') 64-bit
  14. Writing library                          : libebml v1.4.2 + libmatroska v1.6.4
  15. IMDB                                     : tt12361974
  16. TMDB                                     : movie/791373
  17. Video
  18. ID                                       : 1
  19. Format                                   : HEVC
  20. Format/Info                              : High Efficiency Video Coding
  21. Format profile                           : Main 10@L5.1@High
  22. HDR format                               : SMPTE ST 2086, HDR10 compatible
  23. Codec ID                                 : V_MPEGH/ISO/HEVC
  24. Duration                                 : 4 h 2 min
  25. Bit rate                                 : 15.2 Mb/s
  26. Width                                    : 2 880 pixels
  27. Height                                   : 2 160 pixels
  28. Display aspect ratio                     : 4:3
  29. Frame rate mode                          : Constant
  30. Frame rate                               : 23.976 (24000/1001/53354) FPS
  31. Color space                              : YUV
  32. Chroma subsampling                       : 4:2:0 (Type 2)
  33. Bit depth                                : 10 bits
  34. Bits/(Pixel*Frame)                       : 0.102
  35. Stream size                              : 25.6 GiB (82%)
  36. Writing library                          : x265 3.5+29-3415705dd:[Windows][MSVC 1930][64 bit] 10bit
  37. Encoding settings                        : cpuid=533541111039 / frame-threads=6 / numa-pools=32 / wpp / pmode / no-pme / no-psnr / no-ssim / log-level=2 / input-csp=1 / input-res=2880x2160 / interlace=0 / total-frames=348504 / level-idc=51 / high-tier=1 / uhd-bd=0 / ref=5 / no-allow-non-conformance / repeat-headers / annexb / aud / no-eob / no-eos / hrd / info / hash=0 / no-temporal-layers / no-open-gop / min-keyint=1 / keyint=250 / gop-lookahead=0 / bframes=8 / b-adapt=2 / b-pyramid / bframe-bias=0 / rc-lookahead=100 / lookahead-slices=0 / NTMzNTQ=uuDQuD2mJt9fsCf / scenecut=40 / no-hist-scenecut / radl=0 / no-splice / no-intra-refresh / ctu=64 / min-cu-size=8 / no-rect / no-amp / max-tu-size=32 / tu-inter-depth=4 / tu-intra-depth=4 / limit-tu=0 / rdoq-level=2 / dynamic-rd=0.00 / no-ssim-rd / signhide / no-tskip / nr-intra=0 / nr-inter=0 / no-constrained-intra / no-strong-intra-smoothing / max-merge=5 / limit-refs=0 / no-limit-modes / me=3 / subme=7 / merange=57 / temporal-mvp / no-frame-dup / no-hme / weightp / weightb / no-analyze-src-pics / deblock=-3:-3 / no-sao / no-sao-non-deblock / rd=4 / selective-sao=0 / no-early-skip / no-rskip / no-fast-intra / no-tskip-fast / no-cu-lossless / b-intra / no-splitrd-skip / rdpenalty=0 / psy-rd=1.25 / psy-rdoq=1.00 / no-rd-refine / no-lossless / cbqpoffs=0 / crqpoffs=0 / rc=crf / crf=21.0 / qcomp=0.60 / qpstep=4 / stats-write=0 / stats-read=0 / vbv-maxrate=160000 / vbv-bufsize=160000 / vbv-init=0.9 / min-vbv-fullness=50.0 / max-vbv-fullness=80.0 / crf-max=0.0 / crf-min=0.0 / ipratio=1.30 / pbratio=1.20 / aq-mode=1 / aq-strength=1.00 / no-cutree / zone-count=0 / no-strict-cbr / qg-size=8 / no-rc-grain / qpmax=69 / qpmin=0 / no-const-vbv / sar=0 / overscan=0 / videoformat=5 / range=0 / colorprim=9 / transfer=16 / colormatrix=9 / chromaloc=1 / chromaloc-top=2 / chromaloc-bottom=2 / display-window=0 / master-display=G(13250,34500)B(7500,3000)R(34000,16000)WP(15635,16450)L(10000000,1) / cll=597,122 / min-luma=0 / max-luma=1023 / log2-max-poc-lsb=8 / vui-timing-info / vui-hrd-info / slices=1 / no-opt-qp-pps / no-opt-ref-list-length-pps / no-multi-pass-opt-rps / scenecut-bias=0.05 / hist-threshold=0.03 / no-opt-cu-delta-qp / no-aq-motion / hdr10 / hdr10-opt / no-dhdr10-opt / no-idr-recovery-sei / analysis-reuse-level=0 / analysis-save-reuse-level=0 / analysis-load-reuse-level=0 / scale-factor=0 / refine-intra=0 / refine-inter=0 / refine-mv=1 / refine-ctu-distortion=0 / no-limit-sao / ctu-info=0 / no-lowpass-dct / refine-analysis-type=0 / copy-pic=1 / max-ausize-factor=1.0 / no-dynamic-refine / no-single-sei / no-hevc-aq / no-svt / no-field / qp-adaptation-range=1.00 / scenecut-aware-qp=0conformance-window-offsets / right=0 / bottom=0 / NTMzNTQ= / decoder-max-rate=0 / no-vbv-live-multi-pass
  38. Default                                  : Yes
  39. Forced                                   : No
  40. Color range                              : Limited
  41. Color primaries                          : BT.2020
  42. Transfer characteristics                 : PQ
  43. Matrix coefficients                      : BT.2020 non-constant
  44. Mastering display color primaries        : Display P3
  45. Mastering display luminance              : min: 0.0001 cd/m2, max: 1000 cd/m2
  46. Maximum Content Light Level              : 597 cd/m2
  47. Maximum Frame-Average Light Level        : 122 cd/m2
  48. Audio
  49. ID                                       : 2
  50. Format                                   : MLP FBA 16-ch
  51. Format/Info                              : Meridian Lossless Packing FBA with 16-channel presentation
  52. Commercial name                          : Dolby TrueHD with Dolby Atmos
  53. Codec ID                                 : A_TRUEHD
  54. Duration                                 : 4 h 2 min
  55. Bit rate mode                            : Variable
  56. Bit rate                                 : 3 157 kb/s
  57. Maximum bit rate                         : 4 773 kb/s
  58. Channel(s)                               : 8 channels
  59. Channel layout                           : L R C LFE Ls Rs Lb Rb
  60. Sampling rate                            : 48.0 kHz
  61. Frame rate                               : 1 200.000 FPS (40 SPF)
  62. Compression mode                         : Lossless
  63. Stream size                              : 5.34 GiB (17%)
  64. Title                                    : TrueHD Atmos 7.1
  65. Language                                 : English
  66. Default                                  : Yes
  67. Forced                                   : No
  68. Number of dynamic objects                : 11
  69. Bed channel count                        : 1 channel
  70. Bed channel configuration                : LFE
  71. Text #1
  72. ID                                       : 3
  73. Format                                   : PGS
  74. Muxing mode                              : zlib
  75. Codec ID                                 : S_HDMV/PGS
  76. Codec ID/Info                            : Picture based subtitle format used on BDs/HD-DVDs
  77. Duration                                 : 4 h 2 min
  78. Bit rate                                 : 110 kb/s
  79. Count of elements                        : 14070
  80. Stream size                              : 190 MiB (1%)
  81. Title                                    : CHS&ENG
  82. Language                                 : Chinese
  83. Default                                  : Yes
  84. Forced                                   : No
  85. Text #2
  86. ID                                       : 4
  87. Format                                   : PGS
  88. Muxing mode                              : zlib
  89. Codec ID                                 : S_HDMV/PGS
  90. Codec ID/Info                            : Picture based subtitle format used on BDs/HD-DVDs
  91. Duration                                 : 3 h 59 min
  92. Bit rate                                 : 20.1 kb/s
  93. Count of elements                        : 3822
  94. Stream size                              : 34.4 MiB (0%)
  95. Title                                    : CHS
  96. Language                                 : Chinese
  97. Default                                  : No
  98. Forced                                   : No
  99. Text #3
  100. ID                                       : 5
  101. Format                                   : PGS
  102. Muxing mode                              : zlib
  103. Codec ID                                 : S_HDMV/PGS
  104. Codec ID/Info                            : Picture based subtitle format used on BDs/HD-DVDs
  105. Duration                                 : 3 h 51 min
  106. Bit rate                                 : 19.2 kb/s
  107. Count of elements                        : 3804
  108. Stream size                              : 31.7 MiB (0%)
  109. Title                                    : CHT
  110. Language                                 : Chinese
  111. Default                                  : No
  112. Forced                                   : No
  113. Text #4
  114. ID                                       : 6
  115. Format                                   : PGS
  116. Muxing mode                              : zlib
  117. Codec ID                                 : S_HDMV/PGS
  118. Codec ID/Info                            : Picture based subtitle format used on BDs/HD-DVDs
  119. Duration                                 : 4 h 0 min
  120. Bit rate                                 : 25.8 kb/s
  121. Count of elements                        : 5558
  122. Stream size                              : 44.3 MiB (0%)
  123. Title                                    : English (SDH)
  124. Language                                 : English
  125. Default                                  : No
  126. Forced                                   : No
  127. Menu
  128. 00:00:00.000                             : en:Chapter 1
  129. 00:08:54.951                             : en:Part 1: "Don't Count On It, Batman"
  130. 00:19:56.737                             : en:Chapter 3
  131. 00:36:54.671                             : en:Part 2: The Age Of Heroes
  132. 00:41:32.031                             : en:Chapter 5
  133. 00:50:18.641                             : en:Chapter 6
  134. 00:58:42.644                             : en:Chapter 7
  135. 01:08:35.737                             : en:Part 3: Beloved Mother, Beloved Son
  136. 01:20:27.990                             : en:Chapter 9
  137. 01:30:05.317                             : en:Chapter 10
  138. 01:40:28.606                             : en:Chapter 11
  139. 01:51:24.177                             : en:Part 4: "Change Machine"
  140. 01:59:06.931                             : en:Chapter 13
  141. 02:07:56.294                             : en:Chapter 14
  142. 02:21:58.510                             : en:Part 5: All The King's Horses
  143. 02:29:50.106                             : en:Chapter 16
  144. 02:37:27.271                             : en:Chapter 17
  145. 02:48:36.356                             : en:Chapter 18
  146. 02:53:19.681                             : en:Part 6: "Something Darker"
  147. 03:09:54.091                             : en:Chapter 20
  148. 03:21:28.952                             : en:Chapter 21
  149. 03:34:12.214                             : en:Epilogue: A Father Twice Over
  150. 03:40:10.030                             : en:Chapter 23
  151. 03:50:47.459                             : en:Chapter 24
  152. 03:53:28.786                             : en:End Credits





此处一般会放置磁力链或种子下载链接,不过此链接需要注册会员才能看到,点击“立即注册”
磁力链下载【下载链接仅对注册会员开放,登陆后可见】
BT9527电影天堂 1、BT9527电影天堂提供的BT文件均来源于互联网抓取,只供网友学习交流、技术提升使用。
2、我们遵守BitTorrent点对点协议原则,任何版权问题请联系原资源发布商,我们不处理任何版权纠纷,谢谢!如有争议请联系邮箱:BT9527#hotmail.com(#换成@)
3、如果您发现某页面或地址有错误,请联系站长邮箱BT9527#hotmail.com(#换成@),我们会尽快处理。您的热心是对BT9527电影天堂最大的支持。
4、本站建议去正规影院观看电影以支持电影行业发展。
最新回复 (0)

你可以在 登录 or 注册 后,对此帖发表评论!

返回
发新帖