化身博士[简繁英字幕].Dr.Jekyll.and.Mr.Hyde.1941.BluRay.1080p.x265.10bit.FLAC2.0-MiniHD 6.44GB

版主小s 3月前 220

✔资源类型:暂未分类   ✔电影年份:更 早   ✔电影地区:欧美   ✔电影分类:剧情

◎译  名 化身博士 / 鬼医
◎片  名 Dr. Jekyll and Mr. Hyde
◎年  代 1941
◎产  地 美国
◎类  别 剧情 / 科幻 / 恐怖
◎语  言 英语
◎上映日期 1941-08-12
◎IMDb链接 https://www.imdb.com/title/tt0033553/
◎豆瓣评分 7.1/10 (701人评价)
◎豆瓣链接 https://movie.douban.com/subject/1299880/
◎片  长 113 分钟
◎导  演 维克多·弗莱明 Victor Fleming (id:1032275)
◎编  剧 约翰·李·马辛 John Lee Mahin (id:1051063)
       萨莫尔·霍芬斯蒂安 Samuel Hoffenstein (id:1029530)
       罗伯特·路易斯·史蒂文森 Robert Louis Stevenson (id:1041783)
       珀西·希思 Percy Heath (id:1091250)
◎演  员 斯宾塞·屈塞 Spencer Tracy (id:1002743)
       英格丽·褒曼 Ingrid Bergman (id:1049566)
       拉娜·特纳 Lana Turner (id:1004748)
       唐纳德·克里斯普 Donald Crisp (id:1025345)
       伊恩·亨特 Ian Hunter (id:1109321)
       Claude King Claude King (id:1103508)
       奥布里·马瑟 Aubrey Mather (id:1119675)
       巴顿·麦克莱恩 Barton MacLane (id:1117300)
       彼得·戈弗雷 Peter Godfrey (id:1101450)
       Alice Mock Alice Mock (id:1116557)
       奥拉夫·许滕 Olaf Hytten (id:1106567)
       Colin Kenny Colin Kenny (id:1110221)
       布兰登·赫斯特 Brandon Hurst (id:1112525)
       Susanne Leach Susanne Leach (id:1104519)
       西里尔·麦克拉格伦 Cyril McLaglen (id:1122540)
       Pat Moriarity Pat Moriarity (id:1129160)
       弗莱德里克·沃洛克 Frederick Worlock (id:1164449)
       玛莎·温特沃思 Martha Wentworth (id:1163962)
       C.奥布雷·史密斯 C. Aubrey Smith (id:1155593)
       杰克·斯图尔特 Jack Stewart (id:1152584)
       James P. Spencer James P. Spencer (id:1152410)
       威廉·坦嫩 William Tannen (id:1149786)
       Yorke Sherwood Yorke Sherwood (id:1142679)
       Frances Robinson Frances Robinson (id:1141996)
       Clara Reid Clara Reid (id:1138469)
       莱昂内尔·佩普 Lionel Pape (id:1137417)
       Milton Parsons Milton Parsons (id:1137136)
       多丽丝·劳埃德 Doris Lloyd (id:1120544)
       Eldon Gorst Eldon Gorst (id:1100527)
       Vangie Beilby Vangie Beilby (id:1065889)
       约翰·巴克利 John Barclay (id:1062088)
       Jimmy Aubrey Jimmy Aubrey (id:1058110)
       John Power John Power (id:1052255)
       希拉里·布鲁克 Hillary Brooke (id:1050175)
       劳伦斯·格兰特 Lawrence Grant (id:1042557)
       萨拉·奥尔古德 Sara Allgood (id:1041625)
       玛丽·菲尔德 Mary Field (id:1019289)
       比利·贝文 Billy Bevan (id:1066196)
       Lydia Bilbrook Lydia Bilbrook (id:1066682)
       Herbert Clifton Herbert Clifton (id:1069595)
       Denis Green Denis Green (id:1099544)
       福里斯特·哈维 Forrester Harvey (id:1098019)
       Stuart Hall Stuart Hall (id:1097072)
       Winifred Harris Winifred Harris (id:1095571)
       Bobby Hale Bobby Hale (id:1094316)
       Lumsden Hare Lumsden Hare (id:1091820)
       弗兰克·哈格尼 Frank Hagney (id:1091047)
       Al Ferguson Al Ferguson (id:1085560)
       David Dunbar David Dunbar (id:1084094)
       Alec Craig Alec Craig (id:1079069)
       丽塔·卡莱尔 Rita Carlyle (id:1075864)
       维克多·萨维勒 Victor Saville (id:1028654)
       维克多·弗莱明 Victor Fleming (id:1032275)
       丹尼尔·艾姆菲斯特洛夫 Daniele Amfitheatrof (id:1042222)
       弗朗茨·沃克斯曼 Franz Waxman (id:1016824)
       Mario Castelnuovo-Tedesco Mario Castelnuovo-Tedesco (id:1055938)
       约瑟夫·拉滕伯格 Joseph Ruttenberg (id:1012779)
       哈罗德·F.克雷斯 Harold F. Kress (id:1013741)
       埃德温·B·威利斯 Edwin B. Willis (id:1005786)
       塞德里克·吉本森 Cedric Gibbons (id:1002917)
       艾德里安 Adrian (id:1059883)
       杰克·道恩 Jack Dawn (id:1087502)
        Tom Andre (id:1255959)

◎简  介
  基克尔(斯宾塞·屈塞 Spencer Tracy 饰)是一名知识非常渊博的科学家,他将毕生的经历都投注到了探索人性的善恶奥妙之中,并且最终制造出了一种可怕的药剂,这种药剂能够令基克尔化身成为海德先生,基克尔将自己所有的恶意和坏念头都投射到了海德的大脑里。白天,基克尔行医救人乐善好施,待到夜幕降临,海德先生便会现身,杀人害命,无恶不作。                                    
                                基克尔有一位名叫伊芙(英格丽·褒曼 Ingrid Bergman 饰)的未婚妻,两人之间的感情非常的要好,然而,海德先生的存在让基克尔不自觉的被名叫碧翠丝(拉娜·特纳 Lana Turner 饰)的放荡妓女所吸引。分裂的人格让基克尔感到万分的痛苦,他想要消灭海德先生。

◎获奖情况 (共3项)
  第14届奥斯卡金像奖 (1942)
  黑白片最佳摄影(提名)
   └──约瑟夫·拉滕伯格 (id:1012779)
  最佳剪辑(提名)
   └──哈罗德·F.克雷斯 (id:1013741)
  剧情片最佳配乐(提名)
   └──弗朗茨·沃克斯曼 (id:1016824)

  1. ##### MediaInfo ######
  2. General
  3. Unique ID                                : 179765832411023269066431353599092133840 (0x873DA3D4897F24C125DBF69023610FD0)
  4. Complete name                            : Dr.Jekyll.and.Mr.Hyde.1941.BluRay.1080p.x265.10bit.FLAC2.0-MiniHD.mkv
  5. Format                                   : Matroska
  6. Format version                           : Version 4
  7. File size                                : 6.43 GiB
  8. Duration                                 : 1 h 52 min
  9. Overall bit rate mode                    : Variable
  10. Overall bit rate                         : 8 163 kb/s
  11. Movie name                               : Dr.Jekyll.and.Mr.Hyde.1941.BluRay.1080p.x265.10bit.FLAC2.0.MNHD-FRDS
  12. Encoded date                             : UTC 2022-06-05 03:58:55
  13. Writing application                      : mkvmerge v65.0.0 ('Too Much') 64-bit
  14. Writing library                          : libebml v1.4.2 + libmatroska v1.6.4
  15. Video
  16. ID                                       : 1
  17. Format                                   : HEVC
  18. Format/Info                              : High Efficiency Video Coding
  19. Format profile                           : Main 10@L5.1@High
  20. Codec ID                                 : V_MPEGH/ISO/HEVC
  21. Duration                                 : 1 h 52 min
  22. Bit rate                                 : 7 892 kb/s
  23. Width                                    : 1 480 pixels
  24. Height                                   : 1 080 pixels
  25. Display aspect ratio                     : 1.370
  26. Frame rate mode                          : Constant
  27. Frame rate                               : 24.000 FPS
  28. Color space                              : YUV
  29. Chroma subsampling                       : 4:2:0
  30. Bit depth                                : 10 bits
  31. Bits/(Pixel*Frame)                       : 0.206
  32. Stream size                              : 6.21 GiB (97%)
  33. Writing library                          : x265 3.5+2-2b25c9ba0:[Linux][GCC 9.3.0][64 bit] 10bit
  34. Encoding settings                        : cpuid=533541111039 / frame-threads=3 / numa-pools=11 / wpp / pmode / no-pme / no-psnr / no-ssim / log-level=2 / input-csp=1 / input-res=1480x1080 / interlace=0 / total-frames=162347 / level-idc=0 / high-tier=1 / uhd-bd=0 / ref=4 / no-allow-non-conformance / no-repeat-headers / annexb / no-aud / no-hrd / info / hash=0 / no-temporal-layers / no-open-gop / min-keyint=1 / keyint=250 / gop-lookahead=0 / bframes=6 / b-adapt=2 / b-pyramid / bframe-bias=0 / rc-lookahead=80 / lookahead-slices=0 / NTMzNTQ=uuDQuD2mJt9fsCf / scenecut=40 / hist-scenecut=0 / radl=0 / no-splice / no-intra-refresh / ctu=32 / min-cu-size=8 / no-rect / no-amp / max-tu-size=32 / tu-inter-depth=4 / tu-intra-depth=4 / limit-tu=0 / rdoq-level=2 / dynamic-rd=0.00 / no-ssim-rd / signhide / no-tskip / nr-intra=0 / nr-inter=0 / no-constrained-intra / no-strong-intra-smoothing / max-merge=5 / limit-refs=0 / no-limit-modes / me=3 / subme=7 / merange=57 / temporal-mvp / no-frame-dup / no-hme / weightp / weightb / no-analyze-src-pics / deblock=-3:-3 / no-sao / no-sao-non-deblock / rd=4 / selective-sao=0 / no-early-skip / no-rskip / no-fast-intra / no-tskip-fast / no-cu-lossless / b-intra / no-splitrd-skip / rdpenalty=0 / psy-rd=1.50 / psy-rdoq=1.00 / no-rd-refine / no-lossless / cbqpoffs=-2 / crqpoffs=-2 / rc=crf / crf=20.5 / qcomp=0.65 / qpstep=4 / stats-write=0 / stats-read=0 / vbv-maxrate=160000 / vbv-bufsize=160000 / vbv-init=0.9 / min-vbv-fullness=50.0 / max-vbv-fullness=80.0 / crf-max=0.0 / crf-min=0.0 / ipratio=1.30 / pbratio=1.20 / aq-mode=1 / aq-strength=1.00 / no-cutree / zone-count=0 / no-strict-cbr / qg-size=8 / no-rc-grain / qpmax=69 / qpmin=0 / no-const-vbv / sar=0 / overscan=0 / videoformat=5 / range=0 / colorprim=1 / transfer=1 / colormatrix=1 / chromaloc=0 / display-window=0 / cll=0,0 / min-luma=0 / max-luma=1023 / log2-max-poc-lsb=8 / vui-timing-info / vui-hrd-info / slices=1 / no-opt-qp-pps / no-opt-ref-list-length-pps / no-multi-pass-opt-rps / scenecut-bias=0.05 / hist-threshold=0.03 / no-opt-cu-delta-qp / no-aq-motion / no-hdr10 / no-hdr10-opt / no-dhdr10-opt / no-idr-recovery-sei / analysis-reuse-level=0 / analysis-save-reuse-level=0 / analysis-load-reuse-level=0 / scale-factor=0 / refine-intra=0 / refine-inter=0 / refine-mv=1 / refine-ctu-distortion=0 / no-limit-sao / ctu-info=0 / no-lowpass-dct / refine-analysis-type=0 / copy-pic=1 / max-ausize-factor=1.0 / no-dynamic-refine / no-single-sei / no-hevc-aq / no-svt / no-field / qp-adaptation-range=1.00 / scenecut-aware-qp=0conformance-window-offsets / right=0 / bottom=0 / NTMzNTQ= / decoder-max-rate=0 / no-vbv-live-multi-pass
  35. Default                                  : Yes
  36. Forced                                   : No
  37. Color range                              : Limited
  38. Color primaries                          : BT.709
  39. Transfer characteristics                 : BT.709
  40. Matrix coefficients                      : BT.709
  41. Audio
  42. ID                                       : 2
  43. Format                                   : FLAC
  44. Format/Info                              : Free Lossless Audio Codec
  45. Codec ID                                 : A_FLAC
  46. Duration                                 : 1 h 52 min
  47. Bit rate mode                            : Variable
  48. Bit rate                                 : 277 kb/s
  49. Channel(s)                               : 2 channels
  50. Channel layout                           : L R
  51. Sampling rate                            : 48.0 kHz
  52. Frame rate                               : 11.719 FPS (4096 SPF)
  53. Bit depth                                : 16 bits
  54. Compression mode                         : Lossless
  55. Stream size                              : 223 MiB (3%)
  56. Title                                    : English
  57. Writing library                          : libFLAC 1.3.4 (UTC 2022-02-20)
  58. Language                                 : English
  59. Default                                  : Yes
  60. Forced                                   : No
  61. Text #1
  62. ID                                       : 3
  63. Format                                   : UTF-8
  64. Codec ID                                 : S_TEXT/UTF8
  65. Codec ID/Info                            : UTF-8 Plain Text
  66. Duration                                 : 1 h 50 min
  67. Bit rate                                 : 51 b/s
  68. Count of elements                        : 1020
  69. Stream size                              : 41.5 KiB (0%)
  70. Title                                    : Chinese(Simplified)
  71. Language                                 : Chinese
  72. Default                                  : No
  73. Forced                                   : No
  74. Text #2
  75. ID                                       : 4
  76. Format                                   : UTF-8
  77. Codec ID                                 : S_TEXT/UTF8
  78. Codec ID/Info                            : UTF-8 Plain Text
  79. Duration                                 : 1 h 50 min
  80. Bit rate                                 : 51 b/s
  81. Count of elements                        : 1020
  82. Stream size                              : 41.5 KiB (0%)
  83. Title                                    : Chinese(Traditional)
  84. Language                                 : Chinese
  85. Default                                  : No
  86. Forced                                   : No
  87. Text #3
  88. ID                                       : 5
  89. Format                                   : UTF-8
  90. Codec ID                                 : S_TEXT/UTF8
  91. Codec ID/Info                            : UTF-8 Plain Text
  92. Duration                                 : 1 h 50 min
  93. Bit rate                                 : 59 b/s
  94. Count of elements                        : 1558
  95. Stream size                              : 48.5 KiB (0%)
  96. Title                                    : English
  97. Language                                 : English
  98. Default                                  : No
  99. Forced                                   : No
  100. Text #4
  101. ID                                       : 6
  102. Format                                   : UTF-8
  103. Codec ID                                 : S_TEXT/UTF8
  104. Codec ID/Info                            : UTF-8 Plain Text
  105. Duration                                 : 1 h 52 min
  106. Bit rate                                 : 63 b/s
  107. Count of elements                        : 1746
  108. Stream size                              : 51.9 KiB (0%)
  109. Title                                    : English(SDH)
  110. Language                                 : English
  111. Default                                  : No
  112. Forced                                   : No
  113. Menu
  114. 00:00:00.000                             : en:Chapter 01
  115. 00:01:16.076                             : en:Chapter 02
  116. 00:04:26.308                             : en:Chapter 03
  117. 00:06:15.375                             : en:Chapter 04
  118. 00:08:25.922                             : en:Chapter 05
  119. 00:09:48.588                             : en:Chapter 06
  120. 00:14:06.846                             : en:Chapter 07
  121. 00:18:28.691                             : en:Chapter 08
  122. 00:21:52.311                             : en:Chapter 09
  123. 00:27:27.646                             : en:Chapter 10
  124. 00:33:05.192                             : en:Chapter 11
  125. 00:34:46.084                             : en:Chapter 12
  126. 00:39:37.375                             : en:Chapter 13
  127. 00:42:44.562                             : en:Chapter 14
  128. 00:45:38.736                             : en:Chapter 15
  129. 00:47:27.553                             : en:Chapter 16
  130. 00:50:50.047                             : en:Chapter 17
  131. 00:55:39.294                             : en:Chapter 18
  132. 00:57:44.461                             : en:Chapter 19
  133. 00:59:29.566                             : en:Chapter 20
  134. 01:01:42.657                             : en:Chapter 21
  135. 01:05:21.918                             : en:Chapter 22
  136. 01:08:48.124                             : en:Chapter 23
  137. 01:10:18.214                             : en:Chapter 24
  138. 01:12:23.422                             : en:Chapter 25
  139. 01:15:05.501                             : en:Chapter 26
  140. 01:16:56.612                             : en:Chapter 27
  141. 01:19:10.746                             : en:Chapter 28
  142. 01:23:35.010                             : en:Chapter 29
  143. 01:25:17.112                             : en:Chapter 30
  144. 01:26:23.178                             : en:Chapter 31
  145. 01:27:42.007                             : en:Chapter 32
  146. 01:30:24.294                             : en:Chapter 33
  147. 01:32:21.161                             : en:Chapter 34
  148. 01:34:20.655                             : en:Chapter 35
  149. 01:37:05.695                             : en:Chapter 36
  150. 01:39:15.950                             : en:Chapter 37
  151. 01:41:07.061                             : en:Chapter 38
  152. 01:44:39.273                             : en:Chapter 39
  153. 01:47:20.851                             : en:Chapter 40
  154. 01:48:57.698                             : en:Chapter 41
  155. 01:50:40.050                             : en:Chapter 42
  156. 01:51:38.692                             : en:Chapter 43
  157. 01:52:09.723                             : en:Chapter 44





此处一般会放置磁力链或种子下载链接,不过此链接需要注册会员才能看到,点击“立即注册”
磁力链下载【下载链接仅对注册会员开放,登陆后可见】
BT9527电影天堂 1、BT9527电影天堂提供的BT文件均来源于互联网抓取,只供网友学习交流、技术提升使用。
2、我们遵守BitTorrent点对点协议原则,任何版权问题请联系原资源发布商,我们不处理任何版权纠纷,谢谢!如有争议请联系邮箱:BT9527#hotmail.com(#换成@)
3、如果您发现某页面或地址有错误,请联系站长邮箱BT9527#hotmail.com(#换成@),我们会尽快处理。您的热心是对BT9527电影天堂最大的支持。
4、本站建议去正规影院观看电影以支持电影行业发展。
最新回复 (0)

你可以在 登录 or 注册 后,对此帖发表评论!

返回
发新帖