白昼进攻[简繁英字幕].A.Walk.In.The.Sun.1945.BluRay.1080p.x265.10bit.FLAC2.0-MiniHD 8.27GB

版主小s 7天前 61

✔资源类型:暂未分类   ✔电影年份:更 早   ✔电影地区:欧美   ✔电影分类:剧情

◎译  名 白昼进攻 / 太阳下的步行
◎片  名 A Walk in the Sun
◎年  代 1945
◎产  地 美国
◎类  别 剧情 / 战争
◎语  言 英语 / 意大利语
◎上映日期 1945-12-25
◎IMDb链接 https://www.imdb.com/title/tt0038235/
◎豆瓣链接 https://movie.douban.com/subject/1302237/
◎片  长 117 分钟
◎导  演 刘易斯·迈尔斯通 Lewis Milestone (id:1028029)
◎编  剧 罗伯特·罗森 Robert Rossen (id:1032508)
       哈利·布朗 Harry Brown (id:1074552)
◎演  员 达纳·安德鲁斯 Dana Andrews (id:1014034)
       理查德·康特 Richard Conte (id:1002815)
       乔治·泰恩 George Tyne (id:1008157)
       约翰·凯洛格 John Kellogg (id:1113347)
       约翰·爱尔兰 John Ireland (id:1102930)
       Barton Hepburn Barton Hepburn (id:1099004)
       比利·洛德 Billy Lord (id:1115791)
       诺曼·劳埃德 Norman Lloyd (id:1118329)
       Grant Maiben Grant Maiben (id:1125321)
       Jay Norris Jay Norris (id:1126833)
       Foster H. Phinney Foster H. Phinney (id:1132503)
       小乔治·奥弗曼 George Offerman Jr. (id:1136438)
       赫伯特·鲁德利 Herbert Rudley (id:1138018)
       Jerry Sheldon Jerry Sheldon (id:1144528)
       Alvin Hammer Alvin Hammer (id:1097381)
       Robert Horton Robert Horton (id:1092824)
       Chris Drake Chris Drake (id:1089271)
       劳埃德·布里吉斯 Lloyd Bridges (id:1013897)
       斯特灵·哈洛威 Sterling Holloway (id:1014048)
       理查德·贝内迪克特 Richard Benedict (id:1016789)
       亨兹·豪尔 Huntz Hall (id:1025318)
       Fred Carpenter Fred Carpenter (id:1036109)
       布吉斯·梅迪斯 Burgess Meredith (id:1041173)
       Victor Cutler Victor Cutler (id:1076227)
       詹姆斯·卡德韦尔 James Cardwell (id:1076820)
       斯蒂夫·布罗狄 Steve Brodie (id:1078832)
       Matt Willis Matt Willis (id:1164700)
       刘易斯·迈尔斯通 Lewis Milestone (id:1028029)
       弗雷迪·里奇 Freddie Rich (id:1016076)
       拉塞尔·哈伦 Russell Harlan (id:1051039)
       W. Duncan Mansfield W. Duncan Mansfield (id:1053680)
       Maurie M. Suess Maurie M. Suess (id:1013581)

◎简  介
  During WWII, a platoon of American soldiers trudge through the Italian countryside in search of a bridge they have been ordered to blow up, encountering danger and destruction along the way.
  1. ##### MediaInfo ######
  2. General
  3. Unique ID                                : 292241373466863585382502420525815446382 (0xDBDBA426A85A597BE67CBAF53AF03B6E)
  4. Complete name                            : A.Walk.In.The.Sun.1945.BluRay.1080p.x265.10bit.FLAC2.0-MiniHD.mkv
  5. Format                                   : Matroska
  6. Format version                           : Version 4
  7. File size                                : 8.27 GiB
  8. Duration                                 : 1 h 57 min
  9. Overall bit rate mode                    : Variable
  10. Overall bit rate                         : 10.1 Mb/s
  11. Movie name                               : A.Walk.In.The.Sun.1945.BluRay.1080p.x265.10bit.FLAC2.0.MNHD-FRDS
  12. Encoded date                             : UTC 2022-06-01 19:07:36
  13. Writing application                      : mkvmerge v65.0.0 ('Too Much') 64-bit
  14. Writing library                          : libebml v1.4.2 + libmatroska v1.6.4
  15. Video
  16. ID                                       : 1
  17. Format                                   : HEVC
  18. Format/Info                              : High Efficiency Video Coding
  19. Format profile                           : Main 10@L5.1@High
  20. Codec ID                                 : V_MPEGH/ISO/HEVC
  21. Duration                                 : 1 h 57 min
  22. Bit rate                                 : 9 725 kb/s
  23. Width                                    : 1 482 pixels
  24. Height                                   : 1 080 pixels
  25. Display aspect ratio                     : 1.372
  26. Frame rate mode                          : Constant
  27. Frame rate                               : 23.976 (24000/1001/53354) FPS
  28. Color space                              : YUV
  29. Chroma subsampling                       : 4:2:0
  30. Bit depth                                : 10 bits
  31. Bits/(Pixel*Frame)                       : 0.253
  32. Stream size                              : 7.98 GiB (96%)
  33. Writing library                          : x265 3.5+2-2b25c9ba0:[Linux][GCC 9.3.0][64 bit] 10bit
  34. Encoding settings                        : cpuid=533541111039 / frame-threads=3 / numa-pools=11 / wpp / pmode / no-pme / no-psnr / no-ssim / log-level=2 / input-csp=1 / input-res=1482x1080 / interlace=0 / total-frames=168945 / level-idc=0 / high-tier=1 / uhd-bd=0 / ref=4 / no-allow-non-conformance / no-repeat-headers / annexb / no-aud / no-hrd / info / hash=0 / no-temporal-layers / no-open-gop / min-keyint=1 / keyint=250 / gop-lookahead=0 / bframes=6 / b-adapt=2 / b-pyramid / bframe-bias=0 / rc-lookahead=80 / lookahead-slices=0 / NTMzNTQ=uuDQuD2mJt9fsCf / scenecut=40 / hist-scenecut=0 / radl=0 / no-splice / no-intra-refresh / ctu=32 / min-cu-size=8 / no-rect / no-amp / max-tu-size=32 / tu-inter-depth=4 / tu-intra-depth=4 / limit-tu=0 / rdoq-level=2 / dynamic-rd=0.00 / no-ssim-rd / signhide / no-tskip / nr-intra=0 / nr-inter=0 / no-constrained-intra / no-strong-intra-smoothing / max-merge=5 / limit-refs=0 / no-limit-modes / me=3 / subme=7 / merange=57 / temporal-mvp / no-frame-dup / no-hme / weightp / weightb / no-analyze-src-pics / deblock=-3:-3 / no-sao / no-sao-non-deblock / rd=4 / selective-sao=0 / no-early-skip / no-rskip / no-fast-intra / no-tskip-fast / no-cu-lossless / b-intra / no-splitrd-skip / rdpenalty=0 / psy-rd=1.50 / psy-rdoq=1.00 / no-rd-refine / no-lossless / cbqpoffs=-2 / crqpoffs=-2 / rc=crf / crf=23.2 / qcomp=0.65 / qpstep=4 / stats-write=0 / stats-read=0 / vbv-maxrate=160000 / vbv-bufsize=160000 / vbv-init=0.9 / min-vbv-fullness=50.0 / max-vbv-fullness=80.0 / crf-max=0.0 / crf-min=0.0 / ipratio=1.30 / pbratio=1.20 / aq-mode=1 / aq-strength=1.00 / no-cutree / zone-count=0 / no-strict-cbr / qg-size=8 / no-rc-grain / qpmax=69 / qpmin=0 / no-const-vbv / sar=0 / overscan=0 / videoformat=5 / range=0 / colorprim=1 / transfer=1 / colormatrix=1 / chromaloc=0 / display-window=0 / cll=0,0 / min-luma=0 / max-luma=1023 / log2-max-poc-lsb=8 / vui-timing-info / vui-hrd-info / slices=1 / no-opt-qp-pps / no-opt-ref-list-length-pps / no-multi-pass-opt-rps / scenecut-bias=0.05 / hist-threshold=0.03 / no-opt-cu-delta-qp / no-aq-motion / no-hdr10 / no-hdr10-opt / no-dhdr10-opt / no-idr-recovery-sei / analysis-reuse-level=0 / analysis-save-reuse-level=0 / analysis-load-reuse-level=0 / scale-factor=0 / refine-intra=0 / refine-inter=0 / refine-mv=1 / refine-ctu-distortion=0 / no-limit-sao / ctu-info=0 / no-lowpass-dct / refine-analysis-type=0 / copy-pic=1 / max-ausize-factor=1.0 / no-dynamic-refine / no-single-sei / no-hevc-aq / no-svt / no-field / qp-adaptation-range=1.00 / scenecut-aware-qp=0conformance-window-offsets / right=0 / bottom=0 / NTMzNTQ= / decoder-max-rate=0 / no-vbv-live-multi-pass
  35. Default                                  : Yes
  36. Forced                                   : No
  37. Color range                              : Limited
  38. Color primaries                          : BT.709
  39. Transfer characteristics                 : BT.709
  40. Matrix coefficients                      : BT.709
  41. Audio #1
  42. ID                                       : 2
  43. Format                                   : FLAC
  44. Format/Info                              : Free Lossless Audio Codec
  45. Codec ID                                 : A_FLAC
  46. Duration                                 : 1 h 57 min
  47. Bit rate mode                            : Variable
  48. Bit rate                                 : 272 kb/s
  49. Channel(s)                               : 2 channels
  50. Channel layout                           : L R
  51. Sampling rate                            : 48.0 kHz
  52. Frame rate                               : 11.719 FPS (4096 SPF)
  53. Bit depth                                : 16 bits
  54. Compression mode                         : Lossless
  55. Stream size                              : 229 MiB (3%)
  56. Title                                    : English
  57. Writing library                          : libFLAC 1.3.4 (UTC 2022-02-20)
  58. Language                                 : English
  59. Default                                  : Yes
  60. Forced                                   : No
  61. Audio #2
  62. ID                                       : 3
  63. Format                                   : AAC LC
  64. Format/Info                              : Advanced Audio Codec Low Complexity
  65. Codec ID                                 : A_AAC-2
  66. Duration                                 : 1 h 57 min
  67. Bit rate                                 : 80.0 kb/s
  68. Channel(s)                               : 2 channels
  69. Channel layout                           : L R
  70. Sampling rate                            : 48.0 kHz
  71. Frame rate                               : 46.875 FPS (1024 SPF)
  72. Compression mode                         : Lossy
  73. Stream size                              : 67.2 MiB (1%)
  74. Title                                    : Alan K. Rode Commentary
  75. Language                                 : English
  76. Default                                  : No
  77. Forced                                   : No
  78. Text #1
  79. ID                                       : 4
  80. Format                                   : UTF-8
  81. Codec ID                                 : S_TEXT/UTF8
  82. Codec ID/Info                            : UTF-8 Plain Text
  83. Duration                                 : 1 h 56 min
  84. Bit rate                                 : 82 b/s
  85. Count of elements                        : 2520
  86. Stream size                              : 70.9 KiB (0%)
  87. Title                                    : Chinese(Simplified)
  88. Language                                 : Chinese
  89. Default                                  : No
  90. Forced                                   : No
  91. Text #2
  92. ID                                       : 5
  93. Format                                   : UTF-8
  94. Codec ID                                 : S_TEXT/UTF8
  95. Codec ID/Info                            : UTF-8 Plain Text
  96. Duration                                 : 1 h 56 min
  97. Bit rate                                 : 83 b/s
  98. Count of elements                        : 2519
  99. Stream size                              : 70.9 KiB (0%)
  100. Title                                    : Chinese(Traditional)
  101. Language                                 : Chinese
  102. Default                                  : No
  103. Forced                                   : No
  104. Text #3
  105. ID                                       : 6
  106. Format                                   : UTF-8
  107. Codec ID                                 : S_TEXT/UTF8
  108. Codec ID/Info                            : UTF-8 Plain Text
  109. Duration                                 : 1 h 56 min
  110. Bit rate                                 : 81 b/s
  111. Count of elements                        : 2521
  112. Stream size                              : 69.7 KiB (0%)
  113. Title                                    : English
  114. Language                                 : English
  115. Default                                  : No
  116. Forced                                   : No
  117. Text #4
  118. ID                                       : 7
  119. Format                                   : UTF-8
  120. Codec ID                                 : S_TEXT/UTF8
  121. Codec ID/Info                            : UTF-8 Plain Text
  122. Duration                                 : 1 h 56 min
  123. Bit rate                                 : 85 b/s
  124. Count of elements                        : 2659
  125. Stream size                              : 72.7 KiB (0%)
  126. Title                                    : English(SDH)
  127. Language                                 : English
  128. Default                                  : No
  129. Forced                                   : No
  130. Menu
  131. 00:00:00.000                             : en:Chapter 01
  132. 00:11:05.498                             : en:Chapter 02
  133. 00:19:55.694                             : en:Chapter 03
  134. 00:28:19.656                             : en:Chapter 04
  135. 00:40:12.327                             : en:Chapter 05
  136. 00:49:20.374                             : en:Chapter 06
  137. 00:57:45.879                             : en:Chapter 07
  138. 01:08:05.665                             : en:Chapter 08
  139. 01:17:27.601                             : en:Chapter 09
  140. 01:28:12.913                             : en:Chapter 10
  141. 01:37:20.793                             : en:Chapter 11
  142. 01:47:37.117                             : en:Chapter 12





此处一般会放置磁力链或种子下载链接,不过此链接需要注册会员才能看到,点击“立即注册”
磁力链下载【下载链接仅对注册会员开放,登陆后可见】
BT9527电影天堂 1、BT9527电影天堂提供的BT文件均来源于互联网抓取,只供网友学习交流、技术提升使用。
2、我们遵守BitTorrent点对点协议原则,任何版权问题请联系原资源发布商,我们不处理任何版权纠纷,谢谢!如有争议请联系邮箱:BT9527#hotmail.com(#换成@)
3、如果您发现某页面或地址有错误,请联系站长邮箱BT9527#hotmail.com(#换成@),我们会尽快处理。您的热心是对BT9527电影天堂最大的支持。
4、本站建议去正规影院观看电影以支持电影行业发展。
最新回复 (0)

你可以在 登录 or 注册 后,对此帖发表评论!

返回
发新帖