走向新生活[简繁英字幕].A.New.Life.1998.BluRay.1080p.x265.10bit.FLAC1.0-MiniHD 8.89GB

版主小s 3月前 166

✔资源类型:暂未分类   ✔电影年份:更 早   ✔电影地区:欧美   ✔电影分类:喜剧

◎译  名 走向新生活 / 单身男子妙事多 / 爱情新生活
◎片  名 A New Life
◎年  代 1988
◎产  地 美国
◎类  别 喜剧
◎语  言 英语
◎上映日期 1988-03-25
◎IMDb链接 https://www.imdb.com/title/tt0095726/
◎豆瓣链接 https://movie.douban.com/subject/1302259/
◎片  长 104 分钟
◎导  演 阿伦·阿尔达 Alan Alda (id:1007030)
◎编  剧 阿伦·阿尔达 Alan Alda (id:1007030)
◎演  员 阿伦·阿尔达 Alan Alda (id:1007030)
       安-玛格丽特 Ann-Margret (id:1055071)
       海尔·林登 Hal Linden (id:1121733)
       薇罗尼卡·哈麦 Veronica Hamel (id:1041238)
       比尔·欧文 Bill Irwin (id:1113911)
       约翰·希亚 John Shea (id:1000351)
       亚历克·马帕 Alec Mapa (id:1122907)
       黛博拉·提克 Deborah Theaker (id:1158465)
       西利亚·维斯顿 Celia Weston (id:1161747)
       Alan Jordan Alan Jordan (id:1110052)
       Stephen Hunter Stephen Hunter (id:1108583)
       C. David Johnson C. David Johnson (id:1107316)
       保罗·赫特 Paul Hecht (id:1023128)
       玛丽·凯·普莱斯 Mary Kay Place (id:1027844)
       马尔科姆·斯图尔特 Malcolm Stewart (id:1048328)
       Beatrice Alda Beatrice Alda (id:1058289)
       凯瑟琳·迪舍 Catherine Disher (id:1085237)
       迈克尔·柯比 Michael Kirby (id:1107002)
       Mark Terry Mark Terry (id:1299083)
       马丁·布莱格曼 Martin Bregman (id:1045474)
       Joseph Turrin Joseph Turrin (id:1016328)
       威廉·雷诺兹 William Reynolds (id:1138322)
       Mary Colquhoun Mary Colquhoun (id:1281092)
       Barbara Dunphy Barbara Dunphy (id:1282826)
       Yudi Bennett Yudi Bennett (id:1278367)

◎简  介
  史提夫热衷于工作却冷落了妻子杰姬,杰姬为此深感不满并提出离婚,从此,这对中年男女各自开展他们的爱情新生活,但如何开始呢?毕竟他们已有二十多年没有和别的异性约会啦!擅长描绘都市中年人爱情心态的艾伦.阿尔达,继大受好评的《四季》与《甜蜜的自由》后再次自导自演一部刻画中年离婚夫妇尝试第二春的浪漫喜剧,并与常葆青春的女猫王安.玛格丽特搭档演出,在美国上映时大受欢迎。
  1. ##### MediaInfo ######
  2. General
  3. Unique ID                                : 105513963057876220167389734859725065385 (0x4F61400694A795BA58B99283163BCCA9)
  4. Complete name                            : A.New.Life.1998.BluRay.1080p.x265.10bit.FLAC1.0-MiniHD.mkv
  5. Format                                   : Matroska
  6. Format version                           : Version 4
  7. File size                                : 8.89 GiB
  8. Duration                                 : 1 h 44 min
  9. Overall bit rate mode                    : Variable
  10. Overall bit rate                         : 12.2 Mb/s
  11. Movie name                               : A.New.Life.1998.BluRay.1080p.x265.10bit.FLAC1.0.MNHD-FRDS
  12. Encoded date                             : UTC 2022-05-28 12:24:53
  13. Writing application                      : mkvmerge v65.0.0 ('Too Much') 64-bit
  14. Writing library                          : libebml v1.4.2 + libmatroska v1.6.4
  15. Video
  16. ID                                       : 1
  17. Format                                   : HEVC
  18. Format/Info                              : High Efficiency Video Coding
  19. Format profile                           : Main 10@L5.1@High
  20. Codec ID                                 : V_MPEGH/ISO/HEVC
  21. Duration                                 : 1 h 44 min
  22. Bit rate                                 : 11.9 Mb/s
  23. Width                                    : 1 920 pixels
  24. Height                                   : 1 080 pixels
  25. Display aspect ratio                     : 16:9
  26. Frame rate mode                          : Constant
  27. Frame rate                               : 23.976 (24000/1001/53354) FPS
  28. Color space                              : YUV
  29. Chroma subsampling                       : 4:2:0
  30. Bit depth                                : 10 bits
  31. Bits/(Pixel*Frame)                       : 0.238
  32. Stream size                              : 8.62 GiB (97%)
  33. Writing library                          : x265 3.5+2-2b25c9ba0:[Linux][GCC 9.3.0][64 bit] 10bit
  34. Encoding settings                        : cpuid=533541111039 / frame-threads=3 / numa-pools=11 / wpp / pmode / no-pme / no-psnr / no-ssim / log-level=2 / input-csp=1 / input-res=1920x1080 / interlace=0 / total-frames=149832 / level-idc=0 / high-tier=1 / uhd-bd=0 / ref=4 / no-allow-non-conformance / no-repeat-headers / annexb / no-aud / no-hrd / info / hash=0 / no-temporal-layers / no-open-gop / min-keyint=1 / keyint=250 / gop-lookahead=0 / bframes=6 / b-adapt=2 / b-pyramid / bframe-bias=0 / rc-lookahead=80 / lookahead-slices=0 / NTMzNTQ=uuDQuD2mJt9fsCf / scenecut=40 / hist-scenecut=0 / radl=0 / no-splice / no-intra-refresh / ctu=32 / min-cu-size=8 / no-rect / no-amp / max-tu-size=32 / tu-inter-depth=4 / tu-intra-depth=4 / limit-tu=0 / rdoq-level=2 / dynamic-rd=0.00 / no-ssim-rd / signhide / no-tskip / nr-intra=0 / nr-inter=0 / no-constrained-intra / no-strong-intra-smoothing / max-merge=5 / limit-refs=0 / no-limit-modes / me=3 / subme=7 / merange=57 / temporal-mvp / no-frame-dup / no-hme / weightp / weightb / no-analyze-src-pics / deblock=-3:-3 / no-sao / no-sao-non-deblock / rd=4 / selective-sao=0 / no-early-skip / no-rskip / no-fast-intra / no-tskip-fast / no-cu-lossless / b-intra / no-splitrd-skip / rdpenalty=0 / psy-rd=1.50 / psy-rdoq=1.00 / no-rd-refine / no-lossless / cbqpoffs=-2 / crqpoffs=-2 / rc=crf / crf=22.2 / qcomp=0.65 / qpstep=4 / stats-write=0 / stats-read=0 / vbv-maxrate=160000 / vbv-bufsize=160000 / vbv-init=0.9 / min-vbv-fullness=50.0 / max-vbv-fullness=80.0 / crf-max=0.0 / crf-min=0.0 / ipratio=1.30 / pbratio=1.20 / aq-mode=1 / aq-strength=1.00 / no-cutree / zone-count=0 / no-strict-cbr / qg-size=8 / no-rc-grain / qpmax=69 / qpmin=0 / no-const-vbv / sar=0 / overscan=0 / videoformat=5 / range=0 / colorprim=1 / transfer=1 / colormatrix=1 / chromaloc=0 / display-window=0 / cll=0,0 / min-luma=0 / max-luma=1023 / log2-max-poc-lsb=8 / vui-timing-info / vui-hrd-info / slices=1 / no-opt-qp-pps / no-opt-ref-list-length-pps / no-multi-pass-opt-rps / scenecut-bias=0.05 / hist-threshold=0.03 / no-opt-cu-delta-qp / no-aq-motion / no-hdr10 / no-hdr10-opt / no-dhdr10-opt / no-idr-recovery-sei / analysis-reuse-level=0 / analysis-save-reuse-level=0 / analysis-load-reuse-level=0 / scale-factor=0 / refine-intra=0 / refine-inter=0 / refine-mv=1 / refine-ctu-distortion=0 / no-limit-sao / ctu-info=0 / no-lowpass-dct / refine-analysis-type=0 / copy-pic=1 / max-ausize-factor=1.0 / no-dynamic-refine / no-single-sei / no-hevc-aq / no-svt / no-field / qp-adaptation-range=1.00 / scenecut-aware-qp=0conformance-window-offsets / right=0 / bottom=0 / NTMzNTQ= / decoder-max-rate=0 / no-vbv-live-multi-pass
  35. Default                                  : Yes
  36. Forced                                   : No
  37. Color range                              : Limited
  38. Color primaries                          : BT.709
  39. Transfer characteristics                 : BT.709
  40. Matrix coefficients                      : BT.709
  41. Audio
  42. ID                                       : 2
  43. Format                                   : FLAC
  44. Format/Info                              : Free Lossless Audio Codec
  45. Codec ID                                 : A_FLAC
  46. Duration                                 : 1 h 44 min
  47. Bit rate mode                            : Variable
  48. Bit rate                                 : 361 kb/s
  49. Channel(s)                               : 1 channel
  50. Channel layout                           : C
  51. Sampling rate                            : 48.0 kHz
  52. Frame rate                               : 11.719 FPS (4096 SPF)
  53. Bit depth                                : 16 bits
  54. Compression mode                         : Lossless
  55. Stream size                              : 269 MiB (3%)
  56. Title                                    : English
  57. Writing library                          : libFLAC 1.3.4 (UTC 2022-02-20)
  58. Language                                 : English
  59. Default                                  : Yes
  60. Forced                                   : No
  61. Text #1
  62. ID                                       : 3
  63. Format                                   : UTF-8
  64. Codec ID                                 : S_TEXT/UTF8
  65. Codec ID/Info                            : UTF-8 Plain Text
  66. Duration                                 : 1 h 38 min
  67. Bit rate                                 : 76 b/s
  68. Count of elements                        : 1776
  69. Stream size                              : 55.7 KiB (0%)
  70. Title                                    : Chinese(Simplified)
  71. Language                                 : Chinese
  72. Default                                  : No
  73. Forced                                   : No
  74. Text #2
  75. ID                                       : 4
  76. Format                                   : UTF-8
  77. Codec ID                                 : S_TEXT/UTF8
  78. Codec ID/Info                            : UTF-8 Plain Text
  79. Duration                                 : 1 h 38 min
  80. Bit rate                                 : 76 b/s
  81. Count of elements                        : 1776
  82. Stream size                              : 55.7 KiB (0%)
  83. Title                                    : Chinese(Traditional)
  84. Language                                 : Chinese
  85. Default                                  : No
  86. Forced                                   : No
  87. Text #3
  88. ID                                       : 5
  89. Format                                   : UTF-8
  90. Codec ID                                 : S_TEXT/UTF8
  91. Codec ID/Info                            : UTF-8 Plain Text
  92. Duration                                 : 1 h 38 min
  93. Bit rate                                 : 81 b/s
  94. Count of elements                        : 2030
  95. Stream size                              : 59.3 KiB (0%)
  96. Title                                    : English
  97. Language                                 : English
  98. Default                                  : No
  99. Forced                                   : No
  100. Text #4
  101. ID                                       : 6
  102. Format                                   : UTF-8
  103. Codec ID                                 : S_TEXT/UTF8
  104. Codec ID/Info                            : UTF-8 Plain Text
  105. Duration                                 : 1 h 43 min
  106. Bit rate                                 : 81 b/s
  107. Count of elements                        : 2115
  108. Stream size                              : 61.5 KiB (0%)
  109. Title                                    : English(SDH)
  110. Language                                 : English
  111. Default                                  : No
  112. Forced                                   : No
  113. Menu
  114. 00:00:00.000                             : en:Chapter 01
  115. 00:10:16.324                             : en:Chapter 02
  116. 00:25:06.338                             : en:Chapter 03
  117. 00:39:44.882                             : en:Chapter 04
  118. 00:58:43.562                             : en:Chapter 05
  119. 01:05:56.619                             : en:Chapter 06
  120. 01:12:27.301                             : en:Chapter 07
  121. 01:29:53.847                             : en:Chapter 08





此处一般会放置磁力链或种子下载链接,不过此链接需要注册会员才能看到,点击“立即注册”
磁力链下载【下载链接仅对注册会员开放,登陆后可见】
BT9527电影天堂 1、BT9527电影天堂提供的BT文件均来源于互联网抓取,只供网友学习交流、技术提升使用。
2、我们遵守BitTorrent点对点协议原则,任何版权问题请联系原资源发布商,我们不处理任何版权纠纷,谢谢!如有争议请联系邮箱:BT9527#hotmail.com(#换成@)
3、如果您发现某页面或地址有错误,请联系站长邮箱BT9527#hotmail.com(#换成@),我们会尽快处理。您的热心是对BT9527电影天堂最大的支持。
4、本站建议去正规影院观看电影以支持电影行业发展。
最新回复 (0)

你可以在 登录 or 注册 后,对此帖发表评论!

返回