龙虎少年队2[简繁英字幕].22.Jump.Street.2014.BluRay.1080p.x265.10bit.DDP7.1.REPACK-MiniHD 5.53GB

版主小s 12天前 53

✔资源类型:暂未分类   ✔电影年份:2014   ✔电影地区:欧美   ✔电影分类:喜剧

◎译  名 龙虎少年队2 / 龙虎少年队:童颜巨捕(台) / 囧探出更(港) / 21 Jump Street 2
◎片  名 22 Jump Street
◎年  代 2014
◎产  地 美国
◎类  别 喜剧 / 动作 / 犯罪
◎语  言 英语
◎上映日期 2014-06-13(美国)
◎IMDb链接 https://www.imdb.com/title/tt2294449/
◎豆瓣评分 6.9/10 (24515人评价)
◎豆瓣链接 https://movie.douban.com/subject/10546666/
◎片  长 112分钟
◎导  演 菲尔·罗德 Phil Lord (id:1290316)
       克里斯托弗·米勒 Christopher Miller (id:1119399)
◎编  剧 迈克尔·巴考尔 Michael Bacall (id:1275107)
       奥伦·尤济尔 Oren Uziel (id:1341155)
       罗德尼·罗斯曼 Rodney Rothman (id:1296189)
       乔纳·希尔 Jonah Hill (id:1036302)
◎演  员 乔纳·希尔 Jonah Hill (id:1036302)
       查宁·塔图姆 Channing Tatum (id:1031224)
       彼得·斯特曼 Peter Stormare (id:1049549)
       怀亚特·拉塞尔 Wyatt Russell (id:1140515)
       艾波·斯蒂文斯 Amber Stevens (id:1027303)
       吉莉恩·贝尔 Jillian Bell (id:1335295)
       艾斯·库珀 Ice Cube (id:1017946)
       尼克·奥弗曼 Nick Offerman (id:1009365)
       吉米·塔特罗 Jimmy Tatro (id:1343651)
       卡罗琳·阿隆 Caroline Aaron (id:1025327)
       克雷格·罗伯兹 Craig Roberts (id:1214964)
       马克·埃文·杰克逊 Marc Evan Jackson (id:1207621)
       乔·克里斯特 Joe Chrest (id:1338883)
       埃迪·J.费尔南德斯 Eddie J. Fernandez (id:1283618)
       泰勒·福雷斯特 Tyler Forrest (id:1355050)
       罗伯·里格尔 Rob Riggle (id:1044950)
       徐海为 Haiwei Xu (id:1351511)
       戴夫·弗兰科 Dave Franco (id:1017991)
       德克斯·弗拉姆 Dax Flame (id:1320119)
       理查德·格里克 Richard Grieco (id:1000233)
       奎恩·拉提法 Queen Latifah (id:1031870)
       库尔特·克劳斯 Kurt Krause (id:1386112)
       托比·尼克尔斯 Toby Nichols (id:1350604)
       阮春智 Dustin Nguyen (id:1049832)
       塞斯·罗根 Seth Rogen (id:1002668)
       安娜·法瑞丝 Anna Faris (id:1041008)
       查宁·塔图姆 Channing Tatum (id:1031224)
       乔纳·希尔 Jonah Hill (id:1036302)
       马克·马瑟斯鲍夫 Mark Mothersbaugh (id:1048237)
       艾伦 A. 安彭 Allan A. Apone (id:1277325)

◎简  介
  故事紧接着上一部继续发展。延科(查宁·塔图姆 Channing Tatum 饰)和施密特(乔纳·希尔 Jonah Hill 饰)好不容易从高中“顺利毕业”,等待着他们的,却是又一轮卧底行动,这一次,他们要挑战的对象是“大学”。和高中相比,大学里人际关系的复杂程度和课业难度都要更上一层楼,这一次,兄弟两人能够顺利完成任务吗?                                    
                                在学园中,延科加入了校足球队,结识了一帮志同道合的好友,与此同时,施密特选择就读艺术系,与古灵精怪的玛雅(安珀·史蒂芬斯 Amber Stevens 饰)发生了一段浪漫轶事。然而,丰富精彩的大学生活令密不可分的延科和施密特之间产生了裂痕,这裂痕之巨大很可能导致患难与共的两人最终分道扬镳。

◎获奖情况 (共7项)
  第16届美国青少年选择奖 (2014)
  最佳突破表演电影新星(提名)
   └──怀亚特·拉塞尔 (id:1140515)
  最佳银幕拍档(提名)
  Choice Movie: Hissy Fit
   └──乔纳·希尔 (id:1036302)
  Choice Movie: Hissy Fit(提名)
   └──艾斯·库珀 (id:1017946)
  最佳暑期电影
  最佳暑期电影明星
   └──查宁·塔图姆 (id:1031224)
  最佳暑期电影明星(提名)
   └──乔纳·希尔 (id:1036302)

  1. ##### MediaInfo ######
  2. General
  3. Unique ID                                : 246596775543009826037899389635095155842 (0xB984CFB9456457754904A0DDA537D482)
  4. Complete name                            : 22.Jump.Street.2014.BluRay.1080p.x265.10bit.DDP7.1.REPACK-MiniHD.mkv
  5. Format                                   : Matroska
  6. Format version                           : Version 4
  7. File size                                : 5.53 GiB
  8. Duration                                 : 1 h 51 min
  9. Overall bit rate                         : 7 072 kb/s
  10. Movie name                               : 22 Jump Street (2014) BluRay 1080p - FRDS
  11. Encoded date                             : UTC 2022-06-15 07:00:19
  12. Writing application                      : mkvmerge v68.0.0 ('The Curtain') 64-bit
  13. Writing library                          : libebml v1.4.2 + libmatroska v1.6.4
  14. IMDB                                     : tt2294449
  15. TMDB                                     : movie/187017
  16. Video
  17. ID                                       : 1
  18. Format                                   : HEVC
  19. Format/Info                              : High Efficiency Video Coding
  20. Format profile                           : Main 10@L5.1@High
  21. Codec ID                                 : V_MPEGH/ISO/HEVC
  22. Duration                                 : 1 h 51 min
  23. Bit rate                                 : 4 794 kb/s
  24. Width                                    : 1 920 pixels
  25. Height                                   : 804 pixels
  26. Display aspect ratio                     : 2.40:1
  27. Frame rate mode                          : Constant
  28. Frame rate                               : 23.976 (24000/1001/53354) FPS
  29. Color space                              : YUV
  30. Chroma subsampling                       : 4:2:0
  31. Bit depth                                : 10 bits
  32. Bits/(Pixel*Frame)                       : 0.130
  33. Stream size                              : 3.75 GiB (68%)
  34. Writing library                          : x265 3.5+20-17839cc0d:[Windows][MSVC 1930][64 bit] 10bit
  35. Encoding settings                        : cpuid=533541111039 / frame-threads=3 / numa-pools=8 / wpp / pmode / no-pme / no-psnr / no-ssim / log-level=2 / input-csp=1 / input-res=1920x804 / interlace=0 / total-frames=161040 / level-idc=0 / high-tier=1 / uhd-bd=0 / ref=6 / no-allow-non-conformance / no-repeat-headers / annexb / no-aud / no-eob / no-eos / no-hrd / info / hash=0 / no-temporal-layers / no-open-gop / min-keyint=1 / keyint=250 / gop-lookahead=0 / bframes=8 / b-adapt=2 / b-pyramid / bframe-bias=0 / rc-lookahead=100 / lookahead-slices=0 / NTMzNTQ=uuDQuD2mJt9fsCf / scenecut=40 / no-hist-scenecut / radl=0 / no-splice / no-intra-refresh / ctu=32 / min-cu-size=8 / no-rect / no-amp / max-tu-size=32 / tu-inter-depth=4 / tu-intra-depth=4 / limit-tu=0 / rdoq-level=2 / dynamic-rd=0.00 / no-ssim-rd / signhide / tskip / nr-intra=0 / nr-inter=0 / no-constrained-intra / no-strong-intra-smoothing / max-merge=5 / limit-refs=0 / no-limit-modes / me=3 / subme=7 / merange=57 / temporal-mvp / no-frame-dup / no-hme / weightp / weightb / no-analyze-src-pics / deblock=-3:-3 / no-sao / no-sao-non-deblock / rd=4 / selective-sao=0 / no-early-skip / no-rskip / no-fast-intra / no-tskip-fast / no-cu-lossless / b-intra / no-splitrd-skip / rdpenalty=0 / psy-rd=1.50 / psy-rdoq=1.00 / no-rd-refine / no-lossless / cbqpoffs=-2 / crqpoffs=-2 / rc=crf / crf=21.0 / qcomp=0.65 / qpstep=4 / stats-write=0 / stats-read=0 / vbv-maxrate=160000 / vbv-bufsize=160000 / vbv-init=0.9 / min-vbv-fullness=50.0 / max-vbv-fullness=80.0 / crf-max=0.0 / crf-min=0.0 / ipratio=1.30 / pbratio=1.20 / aq-mode=1 / aq-strength=1.00 / no-cutree / zone-count=0 / no-strict-cbr / qg-size=8 / no-rc-grain / qpmax=69 / qpmin=0 / no-const-vbv / sar=0 / overscan=0 / videoformat=5 / range=0 / colorprim=1 / transfer=1 / colormatrix=1 / chromaloc=0 / display-window=0 / cll=0,0 / min-luma=0 / max-luma=1023 / log2-max-poc-lsb=8 / vui-timing-info / vui-hrd-info / slices=1 / no-opt-qp-pps / no-opt-ref-list-length-pps / no-multi-pass-opt-rps / scenecut-bias=0.05 / hist-threshold=0.03 / no-opt-cu-delta-qp / no-aq-motion / no-hdr10 / no-hdr10-opt / no-dhdr10-opt / no-idr-recovery-sei / analysis-reuse-level=0 / analysis-save-reuse-level=0 / analysis-load-reuse-level=0 / scale-factor=0 / refine-intra=0 / refine-inter=0 / refine-mv=1 / refine-ctu-distortion=0 / no-limit-sao / ctu-info=0 / no-lowpass-dct / refine-analysis-type=0 / copy-pic=1 / max-ausize-factor=1.0 / no-dynamic-refine / no-single-sei / no-hevc-aq / no-svt / no-field / qp-adaptation-range=1.00 / scenecut-aware-qp=0conformance-window-offsets / right=0 / bottom=0 / NTMzNTQ= / decoder-max-rate=0 / no-vbv-live-multi-pass
  36. Default                                  : Yes
  37. Forced                                   : No
  38. Color range                              : Limited
  39. Color primaries                          : BT.709
  40. Transfer characteristics                 : BT.709
  41. Matrix coefficients                      : BT.709
  42. Audio #1
  43. ID                                       : 2
  44. Format                                   : E-AC-3
  45. Format/Info                              : Enhanced AC-3
  46. Commercial name                          : Dolby Digital Plus
  47. Format profile                           : Blu-ray Disc
  48. Codec ID                                 : A_EAC3
  49. Duration                                 : 1 h 51 min
  50. Bit rate mode                            : Constant
  51. Bit rate                                 : 1 536 kb/s
  52. Channel(s)                               : 8 channels
  53. Channel layout                           : L R C LFE Ls Rs Lb Rb
  54. Sampling rate                            : 48.0 kHz
  55. Frame rate                               : 31.250 FPS (1536 SPF)
  56. Compression mode                         : Lossy
  57. Stream size                              : 1.20 GiB (22%)
  58. Language                                 : English
  59. Service kind                             : Complete Main
  60. Default                                  : Yes
  61. Forced                                   : No
  62. Audio #2
  63. ID                                       : 3
  64. Format                                   : Opus
  65. Codec ID                                 : A_OPUS
  66. Duration                                 : 1 h 51 min
  67. Bit rate                                 : 60.2 kb/s
  68. Channel(s)                               : 2 channels
  69. Channel layout                           : L R
  70. Sampling rate                            : 48.0 kHz
  71. Frame rate                               : 50.000 FPS (960 SPF)
  72. Compression mode                         : Lossy
  73. Stream size                              : 48.2 MiB (1%)
  74. Title                                    : Commentary by actor Channing Tatum, directors Christopher Miller and Phil Lord and actor/writer Jonah Hill
  75. Writing library                          : opusenc from opus-tools 0.2-3-gf5f571b
  76. Language                                 : English
  77. Default                                  : No
  78. Forced                                   : No
  79. ENCODER_OPTIONS                          : --bitrate 65
  80. Text #1
  81. ID                                       : 4
  82. Format                                   : ASS
  83. Codec ID                                 : S_TEXT/ASS
  84. Codec ID/Info                            : Advanced Sub Station Alpha
  85. Duration                                 : 1 h 51 min
  86. Bit rate                                 : 270 b/s
  87. Count of elements                        : 2461
  88. Compression mode                         : Lossless
  89. Stream size                              : 222 KiB (0%)
  90. Title                                    : Chs&Eng
  91. Language                                 : Chinese
  92. Default                                  : Yes
  93. Forced                                   : No
  94. Text #2
  95. ID                                       : 5
  96. Format                                   : PGS
  97. Muxing mode                              : zlib
  98. Codec ID                                 : S_HDMV/PGS
  99. Codec ID/Info                            : Picture based subtitle format used on BDs/HD-DVDs
  100. Duration                                 : 1 h 50 min
  101. Bit rate                                 : 55.4 kb/s
  102. Count of elements                        : 4028
  103. Stream size                              : 43.8 MiB (1%)
  104. Language                                 : English
  105. Default                                  : No
  106. Forced                                   : No
  107. Text #3
  108. ID                                       : 6
  109. Format                                   : PGS
  110. Muxing mode                              : zlib
  111. Codec ID                                 : S_HDMV/PGS
  112. Codec ID/Info                            : Picture based subtitle format used on BDs/HD-DVDs
  113. Duration                                 : 1 h 50 min
  114. Bit rate                                 : 53.2 kb/s
  115. Count of elements                        : 5124
  116. Stream size                              : 42.2 MiB (1%)
  117. Title                                    : SDH
  118. Language                                 : English
  119. Default                                  : No
  120. Forced                                   : No
  121. Text #4
  122. ID                                       : 7
  123. Format                                   : PGS
  124. Muxing mode                              : zlib
  125. Codec ID                                 : S_HDMV/PGS
  126. Codec ID/Info                            : Picture based subtitle format used on BDs/HD-DVDs
  127. Duration                                 : 1 h 50 min
  128. Bit rate                                 : 23.5 kb/s
  129. Count of elements                        : 3876
  130. Stream size                              : 18.6 MiB (0%)
  131. Language                                 : Arabic
  132. Default                                  : No
  133. Forced                                   : No
  134. Text #5
  135. ID                                       : 8
  136. Format                                   : PGS
  137. Muxing mode                              : zlib
  138. Codec ID                                 : S_HDMV/PGS
  139. Codec ID/Info                            : Picture based subtitle format used on BDs/HD-DVDs
  140. Duration                                 : 1 h 50 min
  141. Bit rate                                 : 42.3 kb/s
  142. Count of elements                        : 3242
  143. Stream size                              : 33.5 MiB (1%)
  144. Language                                 : Bulgarian
  145. Default                                  : No
  146. Forced                                   : No
  147. Text #6
  148. ID                                       : 9
  149. Format                                   : PGS
  150. Muxing mode                              : zlib
  151. Codec ID                                 : S_HDMV/PGS
  152. Codec ID/Info                            : Picture based subtitle format used on BDs/HD-DVDs
  153. Duration                                 : 1 h 50 min
  154. Bit rate                                 : 37.9 kb/s
  155. Count of elements                        : 3658
  156. Stream size                              : 30.0 MiB (1%)
  157. Title                                    : Simplified Mandarin
  158. Language                                 : Chinese
  159. Default                                  : Yes
  160. Forced                                   : No
  161. Text #7
  162. ID                                       : 10
  163. Format                                   : PGS
  164. Muxing mode                              : zlib
  165. Codec ID                                 : S_HDMV/PGS
  166. Codec ID/Info                            : Picture based subtitle format used on BDs/HD-DVDs
  167. Duration                                 : 1 h 50 min
  168. Bit rate                                 : 33.8 kb/s
  169. Count of elements                        : 3646
  170. Stream size                              : 26.8 MiB (0%)
  171. Title                                    : Traditional Mandarin
  172. Language                                 : Chinese
  173. Default                                  : Yes
  174. Forced                                   : No
  175. Text #8
  176. ID                                       : 11
  177. Format                                   : PGS
  178. Muxing mode                              : zlib
  179. Codec ID                                 : S_HDMV/PGS
  180. Codec ID/Info                            : Picture based subtitle format used on BDs/HD-DVDs
  181. Duration                                 : 1 h 50 min
  182. Bit rate                                 : 37.3 kb/s
  183. Count of elements                        : 3452
  184. Stream size                              : 29.5 MiB (1%)
  185. Language                                 : Croatian
  186. Default                                  : No
  187. Forced                                   : No
  188. Text #9
  189. ID                                       : 12
  190. Format                                   : PGS
  191. Muxing mode                              : zlib
  192. Codec ID                                 : S_HDMV/PGS
  193. Codec ID/Info                            : Picture based subtitle format used on BDs/HD-DVDs
  194. Duration                                 : 1 h 50 min
  195. Bit rate                                 : 37.7 kb/s
  196. Count of elements                        : 3626
  197. Stream size                              : 29.9 MiB (1%)
  198. Language                                 : Czech
  199. Default                                  : No
  200. Forced                                   : No
  201. Text #10
  202. ID                                       : 13
  203. Format                                   : PGS
  204. Muxing mode                              : zlib
  205. Codec ID                                 : S_HDMV/PGS
  206. Codec ID/Info                            : Picture based subtitle format used on BDs/HD-DVDs
  207. Duration                                 : 1 h 50 min
  208. Bit rate                                 : 41.3 kb/s
  209. Count of elements                        : 2786
  210. Stream size                              : 32.7 MiB (1%)
  211. Language                                 : Danish
  212. Default                                  : No
  213. Forced                                   : No
  214. Text #11
  215. ID                                       : 14
  216. Format                                   : PGS
  217. Muxing mode                              : zlib
  218. Codec ID                                 : S_HDMV/PGS
  219. Codec ID/Info                            : Picture based subtitle format used on BDs/HD-DVDs
  220. Duration                                 : 1 h 50 min
  221. Bit rate                                 : 39.3 kb/s
  222. Count of elements                        : 2732
  223. Stream size                              : 31.2 MiB (1%)
  224. Language                                 : Dutch
  225. Default                                  : No
  226. Forced                                   : No
  227. Text #12
  228. ID                                       : 15
  229. Format                                   : PGS
  230. Muxing mode                              : zlib
  231. Codec ID                                 : S_HDMV/PGS
  232. Codec ID/Info                            : Picture based subtitle format used on BDs/HD-DVDs
  233. Duration                                 : 1 h 50 min
  234. Bit rate                                 : 39.5 kb/s
  235. Count of elements                        : 3936
  236. Stream size                              : 31.3 MiB (1%)
  237. Language                                 : Estonian
  238. Default                                  : No
  239. Forced                                   : No
  240. Text #13
  241. ID                                       : 16
  242. Format                                   : PGS
  243. Muxing mode                              : zlib
  244. Codec ID                                 : S_HDMV/PGS
  245. Codec ID/Info                            : Picture based subtitle format used on BDs/HD-DVDs
  246. Duration                                 : 1 h 50 min
  247. Bit rate                                 : 37.8 kb/s
  248. Count of elements                        : 3532
  249. Stream size                              : 29.9 MiB (1%)
  250. Language                                 : Finnish
  251. Default                                  : No
  252. Forced                                   : No
  253. Text #14
  254. ID                                       : 17
  255. Format                                   : PGS
  256. Muxing mode                              : zlib
  257. Codec ID                                 : S_HDMV/PGS
  258. Codec ID/Info                            : Picture based subtitle format used on BDs/HD-DVDs
  259. Duration                                 : 1 h 50 min
  260. Bit rate                                 : 36.0 kb/s
  261. Count of elements                        : 3482
  262. Stream size                              : 28.5 MiB (1%)
  263. Language                                 : French
  264. Default                                  : No
  265. Forced                                   : No
  266. Text #15
  267. ID                                       : 18
  268. Format                                   : PGS
  269. Muxing mode                              : zlib
  270. Codec ID                                 : S_HDMV/PGS
  271. Codec ID/Info                            : Picture based subtitle format used on BDs/HD-DVDs
  272. Duration                                 : 1 h 50 min
  273. Bit rate                                 : 44.5 kb/s
  274. Count of elements                        : 4666
  275. Stream size                              : 35.3 MiB (1%)
  276. Language                                 : German
  277. Default                                  : No
  278. Forced                                   : No
  279. Text #16
  280. ID                                       : 19
  281. Format                                   : PGS
  282. Muxing mode                              : zlib
  283. Codec ID                                 : S_HDMV/PGS
  284. Codec ID/Info                            : Picture based subtitle format used on BDs/HD-DVDs
  285. Duration                                 : 1 h 50 min
  286. Bit rate                                 : 50.3 kb/s
  287. Count of elements                        : 3640
  288. Stream size                              : 39.9 MiB (1%)
  289. Language                                 : Greek
  290. Default                                  : No
  291. Forced                                   : No
  292. Text #17
  293. ID                                       : 20
  294. Format                                   : PGS
  295. Muxing mode                              : zlib
  296. Codec ID                                 : S_HDMV/PGS
  297. Codec ID/Info                            : Picture based subtitle format used on BDs/HD-DVDs
  298. Duration                                 : 1 h 50 min
  299. Bit rate                                 : 33.4 kb/s
  300. Count of elements                        : 3880
  301. Stream size                              : 26.5 MiB (0%)
  302. Language                                 : Hebrew
  303. Default                                  : No
  304. Forced                                   : No
  305. Text #18
  306. ID                                       : 21
  307. Format                                   : PGS
  308. Muxing mode                              : zlib
  309. Codec ID                                 : S_HDMV/PGS
  310. Codec ID/Info                            : Picture based subtitle format used on BDs/HD-DVDs
  311. Duration                                 : 1 h 50 min
  312. Bit rate                                 : 42.5 kb/s
  313. Count of elements                        : 4174
  314. Stream size                              : 33.7 MiB (1%)
  315. Language                                 : Hindi
  316. Default                                  : No
  317. Forced                                   : No
  318. Text #19
  319. ID                                       : 22
  320. Format                                   : PGS
  321. Muxing mode                              : zlib
  322. Codec ID                                 : S_HDMV/PGS
  323. Codec ID/Info                            : Picture based subtitle format used on BDs/HD-DVDs
  324. Duration                                 : 1 h 50 min
  325. Bit rate                                 : 50.0 kb/s
  326. Count of elements                        : 4164
  327. Stream size                              : 39.6 MiB (1%)
  328. Language                                 : Hungarian
  329. Default                                  : No
  330. Forced                                   : No
  331. Text #20
  332. ID                                       : 23
  333. Format                                   : PGS
  334. Muxing mode                              : zlib
  335. Codec ID                                 : S_HDMV/PGS
  336. Codec ID/Info                            : Picture based subtitle format used on BDs/HD-DVDs
  337. Duration                                 : 1 h 50 min
  338. Bit rate                                 : 46.4 kb/s
  339. Count of elements                        : 3600
  340. Stream size                              : 36.8 MiB (1%)
  341. Language                                 : Icelandic
  342. Default                                  : No
  343. Forced                                   : No
  344. Text #21
  345. ID                                       : 24
  346. Format                                   : PGS
  347. Muxing mode                              : zlib
  348. Codec ID                                 : S_HDMV/PGS
  349. Codec ID/Info                            : Picture based subtitle format used on BDs/HD-DVDs
  350. Duration                                 : 1 h 50 min
  351. Bit rate                                 : 49.1 kb/s
  352. Count of elements                        : 3686
  353. Stream size                              : 38.9 MiB (1%)
  354. Language                                 : Indonesian
  355. Default                                  : No
  356. Forced                                   : No
  357. Text #22
  358. ID                                       : 25
  359. Format                                   : PGS
  360. Muxing mode                              : zlib
  361. Codec ID                                 : S_HDMV/PGS
  362. Codec ID/Info                            : Picture based subtitle format used on BDs/HD-DVDs
  363. Duration                                 : 1 h 50 min
  364. Bit rate                                 : 51.2 kb/s
  365. Count of elements                        : 4154
  366. Stream size                              : 40.6 MiB (1%)
  367. Language                                 : Italian
  368. Default                                  : No
  369. Forced                                   : No
  370. Text #23
  371. ID                                       : 26
  372. Format                                   : PGS
  373. Muxing mode                              : zlib
  374. Codec ID                                 : S_HDMV/PGS
  375. Codec ID/Info                            : Picture based subtitle format used on BDs/HD-DVDs
  376. Duration                                 : 1 h 50 min
  377. Bit rate                                 : 32.1 kb/s
  378. Count of elements                        : 4178
  379. Stream size                              : 25.4 MiB (0%)
  380. Language                                 : Korean
  381. Default                                  : No
  382. Forced                                   : No
  383. Text #24
  384. ID                                       : 27
  385. Format                                   : PGS
  386. Muxing mode                              : zlib
  387. Codec ID                                 : S_HDMV/PGS
  388. Codec ID/Info                            : Picture based subtitle format used on BDs/HD-DVDs
  389. Duration                                 : 1 h 50 min
  390. Bit rate                                 : 40.5 kb/s
  391. Count of elements                        : 3921
  392. Stream size                              : 32.1 MiB (1%)
  393. Language                                 : Latvian
  394. Default                                  : No
  395. Forced                                   : No
  396. Text #25
  397. ID                                       : 28
  398. Format                                   : PGS
  399. Muxing mode                              : zlib
  400. Codec ID                                 : S_HDMV/PGS
  401. Codec ID/Info                            : Picture based subtitle format used on BDs/HD-DVDs
  402. Duration                                 : 1 h 50 min
  403. Bit rate                                 : 47.8 kb/s
  404. Count of elements                        : 3628
  405. Stream size                              : 37.9 MiB (1%)
  406. Language                                 : Lithuanian
  407. Default                                  : No
  408. Forced                                   : No
  409. Text #26
  410. ID                                       : 29
  411. Format                                   : PGS
  412. Muxing mode                              : zlib
  413. Codec ID                                 : S_HDMV/PGS
  414. Codec ID/Info                            : Picture based subtitle format used on BDs/HD-DVDs
  415. Duration                                 : 1 h 50 min
  416. Bit rate                                 : 36.5 kb/s
  417. Count of elements                        : 3256
  418. Stream size                              : 29.0 MiB (1%)
  419. Language                                 : Norwegian
  420. Default                                  : No
  421. Forced                                   : No
  422. Text #27
  423. ID                                       : 30
  424. Format                                   : PGS
  425. Muxing mode                              : zlib
  426. Codec ID                                 : S_HDMV/PGS
  427. Codec ID/Info                            : Picture based subtitle format used on BDs/HD-DVDs
  428. Duration                                 : 1 h 50 min
  429. Bit rate                                 : 38.2 kb/s
  430. Count of elements                        : 3446
  431. Stream size                              : 30.2 MiB (1%)
  432. Language                                 : Polish
  433. Default                                  : No
  434. Forced                                   : No
  435. Text #28
  436. ID                                       : 31
  437. Format                                   : PGS
  438. Muxing mode                              : zlib
  439. Codec ID                                 : S_HDMV/PGS
  440. Codec ID/Info                            : Picture based subtitle format used on BDs/HD-DVDs
  441. Duration                                 : 1 h 50 min
  442. Bit rate                                 : 47.4 kb/s
  443. Count of elements                        : 3530
  444. Stream size                              : 37.6 MiB (1%)
  445. Language                                 : Portuguese
  446. Default                                  : No
  447. Forced                                   : No
  448. Text #29
  449. ID                                       : 32
  450. Format                                   : PGS
  451. Muxing mode                              : zlib
  452. Codec ID                                 : S_HDMV/PGS
  453. Codec ID/Info                            : Picture based subtitle format used on BDs/HD-DVDs
  454. Duration                                 : 1 h 50 min
  455. Bit rate                                 : 41.3 kb/s
  456. Count of elements                        : 3126
  457. Stream size                              : 32.7 MiB (1%)
  458. Language                                 : Romanian
  459. Default                                  : No
  460. Forced                                   : No
  461. Text #30
  462. ID                                       : 33
  463. Format                                   : PGS
  464. Muxing mode                              : zlib
  465. Codec ID                                 : S_HDMV/PGS
  466. Codec ID/Info                            : Picture based subtitle format used on BDs/HD-DVDs
  467. Duration                                 : 1 h 50 min
  468. Bit rate                                 : 41.4 kb/s
  469. Count of elements                        : 3928
  470. Stream size                              : 32.8 MiB (1%)
  471. Language                                 : Russian
  472. Default                                  : No
  473. Forced                                   : No
  474. Text #31
  475. ID                                       : 34
  476. Format                                   : PGS
  477. Muxing mode                              : zlib
  478. Codec ID                                 : S_HDMV/PGS
  479. Codec ID/Info                            : Picture based subtitle format used on BDs/HD-DVDs
  480. Duration                                 : 1 h 50 min
  481. Bit rate                                 : 41.9 kb/s
  482. Count of elements                        : 3636
  483. Stream size                              : 33.2 MiB (1%)
  484. Language                                 : Serbian
  485. Default                                  : No
  486. Forced                                   : No
  487. Text #32
  488. ID                                       : 35
  489. Format                                   : PGS
  490. Muxing mode                              : zlib
  491. Codec ID                                 : S_HDMV/PGS
  492. Codec ID/Info                            : Picture based subtitle format used on BDs/HD-DVDs
  493. Duration                                 : 1 h 50 min
  494. Bit rate                                 : 51.9 kb/s
  495. Count of elements                        : 4162
  496. Stream size                              : 41.1 MiB (1%)
  497. Language                                 : Slovak
  498. Default                                  : No
  499. Forced                                   : No
  500. Text #33
  501. ID                                       : 36
  502. Format                                   : PGS
  503. Muxing mode                              : zlib
  504. Codec ID                                 : S_HDMV/PGS
  505. Codec ID/Info                            : Picture based subtitle format used on BDs/HD-DVDs
  506. Duration                                 : 1 h 50 min
  507. Bit rate                                 : 35.2 kb/s
  508. Count of elements                        : 2900
  509. Stream size                              : 27.9 MiB (0%)
  510. Language                                 : Slovenian
  511. Default                                  : No
  512. Forced                                   : No
  513. Text #34
  514. ID                                       : 37
  515. Format                                   : PGS
  516. Muxing mode                              : zlib
  517. Codec ID                                 : S_HDMV/PGS
  518. Codec ID/Info                            : Picture based subtitle format used on BDs/HD-DVDs
  519. Duration                                 : 1 h 50 min
  520. Bit rate                                 : 50.7 kb/s
  521. Count of elements                        : 3736
  522. Stream size                              : 40.2 MiB (1%)
  523. Title                                    : Castilian
  524. Language                                 : Spanish
  525. Default                                  : No
  526. Forced                                   : No
  527. Text #35
  528. ID                                       : 38
  529. Format                                   : PGS
  530. Muxing mode                              : zlib
  531. Codec ID                                 : S_HDMV/PGS
  532. Codec ID/Info                            : Picture based subtitle format used on BDs/HD-DVDs
  533. Duration                                 : 1 h 50 min
  534. Bit rate                                 : 44.5 kb/s
  535. Count of elements                        : 3972
  536. Stream size                              : 35.3 MiB (1%)
  537. Title                                    : Latin American
  538. Language                                 : Spanish
  539. Default                                  : No
  540. Forced                                   : No
  541. Text #36
  542. ID                                       : 39
  543. Format                                   : PGS
  544. Muxing mode                              : zlib
  545. Codec ID                                 : S_HDMV/PGS
  546. Codec ID/Info                            : Picture based subtitle format used on BDs/HD-DVDs
  547. Duration                                 : 1 h 50 min
  548. Bit rate                                 : 33.7 kb/s
  549. Count of elements                        : 2114
  550. Stream size                              : 26.7 MiB (0%)
  551. Language                                 : Swedish
  552. Default                                  : No
  553. Forced                                   : No
  554. Text #37
  555. ID                                       : 40
  556. Format                                   : PGS
  557. Muxing mode                              : zlib
  558. Codec ID                                 : S_HDMV/PGS
  559. Codec ID/Info                            : Picture based subtitle format used on BDs/HD-DVDs
  560. Duration                                 : 1 h 50 min
  561. Bit rate                                 : 32.5 kb/s
  562. Count of elements                        : 3656
  563. Stream size                              : 25.7 MiB (0%)
  564. Language                                 : Thai
  565. Default                                  : No
  566. Forced                                   : No
  567. Text #38
  568. ID                                       : 41
  569. Format                                   : PGS
  570. Muxing mode                              : zlib
  571. Codec ID                                 : S_HDMV/PGS
  572. Codec ID/Info                            : Picture based subtitle format used on BDs/HD-DVDs
  573. Duration                                 : 1 h 50 min
  574. Bit rate                                 : 46.0 kb/s
  575. Count of elements                        : 3656
  576. Stream size                              : 36.4 MiB (1%)
  577. Language                                 : Turkish
  578. Default                                  : No
  579. Forced                                   : No
  580. Text #39
  581. ID                                       : 42
  582. Format                                   : PGS
  583. Muxing mode                              : zlib
  584. Codec ID                                 : S_HDMV/PGS
  585. Codec ID/Info                            : Picture based subtitle format used on BDs/HD-DVDs
  586. Duration                                 : 1 h 51 min
  587. Bit rate                                 : 81.2 kb/s
  588. Count of elements                        : 4692
  589. Stream size                              : 64.9 MiB (1%)
  590. Title                                    : Commentary by actor Channing Tatum, directors Christopher Miller and Phil Lord and actor/writer Jonah Hill
  591. Language                                 : English
  592. Default                                  : No
  593. Forced                                   : No
  594. Text #40
  595. ID                                       : 43
  596. Format                                   : PGS
  597. Muxing mode                              : zlib
  598. Codec ID                                 : S_HDMV/PGS
  599. Codec ID/Info                            : Picture based subtitle format used on BDs/HD-DVDs
  600. Duration                                 : 1 h 51 min
  601. Bit rate                                 : 59.7 kb/s
  602. Count of elements                        : 4702
  603. Stream size                              : 47.7 MiB (1%)
  604. Title                                    : Commentary by actor Channing Tatum, directors Christopher Miller and Phil Lord and actor/writer Jonah Hill (Traditional Mandarin)
  605. Language                                 : Chinese
  606. Default                                  : No
  607. Forced                                   : No
  608. Text #41
  609. ID                                       : 44
  610. Format                                   : PGS
  611. Muxing mode                              : zlib
  612. Codec ID                                 : S_HDMV/PGS
  613. Codec ID/Info                            : Picture based subtitle format used on BDs/HD-DVDs
  614. Duration                                 : 1 h 51 min
  615. Bit rate                                 : 72.7 kb/s
  616. Count of elements                        : 4672
  617. Stream size                              : 58.1 MiB (1%)
  618. Title                                    : Commentary by actor Channing Tatum, directors Christopher Miller and Phil Lord and actor/writer Jonah Hill
  619. Language                                 : Dutch
  620. Default                                  : No
  621. Forced                                   : No
  622. Text #42
  623. ID                                       : 45
  624. Format                                   : PGS
  625. Muxing mode                              : zlib
  626. Codec ID                                 : S_HDMV/PGS
  627. Codec ID/Info                            : Picture based subtitle format used on BDs/HD-DVDs
  628. Duration                                 : 1 h 51 min
  629. Bit rate                                 : 67.4 kb/s
  630. Count of elements                        : 4702
  631. Stream size                              : 53.9 MiB (1%)
  632. Title                                    : Commentary by actor Channing Tatum, directors Christopher Miller and Phil Lord and actor/writer Jonah Hill
  633. Language                                 : French
  634. Default                                  : No
  635. Forced                                   : No
  636. Text #43
  637. ID                                       : 46
  638. Format                                   : PGS
  639. Muxing mode                              : zlib
  640. Codec ID                                 : S_HDMV/PGS
  641. Codec ID/Info                            : Picture based subtitle format used on BDs/HD-DVDs
  642. Duration                                 : 1 h 51 min
  643. Bit rate                                 : 76.4 kb/s
  644. Count of elements                        : 4702
  645. Stream size                              : 61.1 MiB (1%)
  646. Title                                    : Commentary by actor Channing Tatum, directors Christopher Miller and Phil Lord and actor/writer Jonah Hill
  647. Language                                 : German
  648. Default                                  : No
  649. Forced                                   : No
  650. Text #44
  651. ID                                       : 47
  652. Format                                   : PGS
  653. Muxing mode                              : zlib
  654. Codec ID                                 : S_HDMV/PGS
  655. Codec ID/Info                            : Picture based subtitle format used on BDs/HD-DVDs
  656. Duration                                 : 1 h 51 min
  657. Bit rate                                 : 72.6 kb/s
  658. Count of elements                        : 4702
  659. Stream size                              : 58.0 MiB (1%)
  660. Title                                    : Commentary by actor Channing Tatum, directors Christopher Miller and Phil Lord and actor/writer Jonah Hill
  661. Language                                 : Italian
  662. Default                                  : No
  663. Forced                                   : No
  664. Text #45
  665. ID                                       : 48
  666. Format                                   : PGS
  667. Muxing mode                              : zlib
  668. Codec ID                                 : S_HDMV/PGS
  669. Codec ID/Info                            : Picture based subtitle format used on BDs/HD-DVDs
  670. Duration                                 : 1 h 51 min
  671. Bit rate                                 : 50.7 kb/s
  672. Count of elements                        : 4702
  673. Stream size                              : 40.5 MiB (1%)
  674. Title                                    : Commentary by actor Channing Tatum, directors Christopher Miller and Phil Lord and actor/writer Jonah Hill
  675. Language                                 : Korean
  676. Default                                  : No
  677. Forced                                   : No
  678. Text #46
  679. ID                                       : 49
  680. Format                                   : PGS
  681. Muxing mode                              : zlib
  682. Codec ID                                 : S_HDMV/PGS
  683. Codec ID/Info                            : Picture based subtitle format used on BDs/HD-DVDs
  684. Duration                                 : 1 h 51 min
  685. Bit rate                                 : 70.2 kb/s
  686. Count of elements                        : 4702
  687. Stream size                              : 56.1 MiB (1%)
  688. Title                                    : Commentary by actor Channing Tatum, directors Christopher Miller and Phil Lord and actor/writer Jonah Hill (Latin American)
  689. Language                                 : Spanish
  690. Default                                  : No
  691. Forced                                   : No
  692. Text #47
  693. ID                                       : 50
  694. Format                                   : PGS
  695. Muxing mode                              : zlib
  696. Codec ID                                 : S_HDMV/PGS
  697. Codec ID/Info                            : Picture based subtitle format used on BDs/HD-DVDs
  698. Duration                                 : 1 h 51 min
  699. Bit rate                                 : 51.5 kb/s
  700. Count of elements                        : 4704
  701. Stream size                              : 41.2 MiB (1%)
  702. Title                                    : Commentary by actor Channing Tatum, directors Christopher Miller and Phil Lord and actor/writer Jonah Hill
  703. Language                                 : Thai
  704. Default                                  : No
  705. Forced                                   : No
  706. Menu
  707. 00:00:00.000                             : en:Chapter 1
  708. 00:06:21.798                             : en:Chapter 2
  709. 00:13:09.372                             : en:Chapter 3
  710. 00:19:57.363                             : en:Chapter 4
  711. 00:26:32.174                             : en:Chapter 5
  712. 00:31:30.097                             : en:Chapter 6
  713. 00:36:47.247                             : en:Chapter 7
  714. 00:43:49.252                             : en:Chapter 8
  715. 00:51:46.395                             : en:Chapter 9
  716. 00:58:58.410                             : en:Chapter 10
  717. 01:07:30.588                             : en:Chapter 11
  718. 01:16:28.250                             : en:Chapter 12
  719. 01:23:02.603                             : en:Chapter 13
  720. 01:29:51.678                             : en:Chapter 14
  721. 01:35:25.470                             : en:Chapter 15
  722. 01:41:57.194                             : en:Chapter 16





此处一般会放置磁力链或种子下载链接,不过此链接需要注册会员才能看到,点击“立即注册”
磁力链下载【下载链接仅对注册会员开放,登陆后可见】
BT9527电影天堂 1、BT9527电影天堂提供的BT文件均来源于互联网抓取,只供网友学习交流、技术提升使用。
2、我们遵守BitTorrent点对点协议原则,任何版权问题请联系原资源发布商,我们不处理任何版权纠纷,谢谢!如有争议请联系邮箱:BT9527#hotmail.com(#换成@)
3、如果您发现某页面或地址有错误,请联系站长邮箱BT9527#hotmail.com(#换成@),我们会尽快处理。您的热心是对BT9527电影天堂最大的支持。
4、本站建议去正规影院观看电影以支持电影行业发展。
最新回复 (0)

你可以在 登录 or 注册 后,对此帖发表评论!

返回
发新帖