闪回[简英字幕].Flashback.2020.BluRay.1080p.x265.10bit.DDP5.1-MiniHD 5.63GB

版主小s 16天前 71

✔资源类型:暂未分类   ✔电影年份:2020   ✔电影地区:其他   ✔电影分类:剧情

◎译  名 闪回 / 弗雷德里克·菲茨尔的教育 / 药命回忆(台) / The Education of Fredrick Fitzell
◎片  名 Flashback
◎年  代 2020
◎产  地 加拿大
◎类  别 剧情 / 悬疑 / 惊悚
◎语  言 英语
◎上映日期 2020-10-08(锡切斯线上电影节) / 2021-06-04(美国)
◎IMDb链接 https://www.imdb.com/title/tt8372094/
◎豆瓣评分 5.1/10 (759人评价)
◎豆瓣链接 https://movie.douban.com/subject/30212954/
◎片  长 97分钟
◎导  演 克里斯托弗·麦克布莱德 Christopher MacBride (id:1323849)
◎编  剧 克里斯托弗·麦克布莱德 Christopher MacBride (id:1323849)
◎演  员 迪伦·奥布莱恩 Dylan O'Brien (id:1314963)
       汉娜·格罗斯 Hannah Gross (id:1259304)
       麦卡·梦露 Maika Monroe (id:1334593)
       唐纳德·布尔达 Donald Burda (id:1071234)
       阿曼达·布鲁盖尔 Amanda Brugel (id:1077066)
       伊恩·马休斯 Ian Matthews (id:1371204)
       亚伦·普尔 Aaron Poole (id:1294714)
       艾莫里·科恩 Emory Cohen (id:1033093)
       Jill Frappier Jill Frappier (id:1326413)
       A·C·彼得森 A.C. Peterson (id:1380704)
       乔什·克鲁达斯 Josh Cruddas (id:1442635)
       凯尔·吉克瑞斯特 Keir Gilchrist (id:1027285)
       兰登·诺里斯 Landon Norris (id:1257381)
       赫舍尔·布拉特 Hershel Blatt (id:1437180)
       茜玛·费舍尔 Sima Fisher (id:1414023)

◎简  介
  弗雷德里克·菲茨尔过着他最美好的生活,可是他开始对一个在高中时消失的女孩辛迪产生了可怕的幻觉。他向曾经和他一起服用神秘药物“Mercury”的老朋友求助,但他意识到唯一的解决办法就在自己的记忆深处。于是,弗雷德里克为了了解真相,展开了一场可怕的精神奥德赛。
  1. ##### MediaInfo ######
  2. General
  3. Unique ID                                : 193338012524050393370689767550284889625 (0x91738BF92C74F0CDA0E928ACB87A7E19)
  4. Complete name                            : Flashback.2020.BluRay.1080p.x265.10bit.DDP5.1-MiniHD.mkv
  5. Format                                   : Matroska
  6. Format version                           : Version 4
  7. File size                                : 5.63 GiB
  8. Duration                                 : 1 h 36 min
  9. Overall bit rate                         : 8 313 kb/s
  10. Encoded date                             : UTC 2022-05-30 13:26:41
  11. Writing application                      : mkvmerge v68.0.0 ('The Curtain') 64-bit
  12. Writing library                          : libebml v1.4.2 + libmatroska v1.6.4
  13. Video
  14. ID                                       : 1
  15. Format                                   : HEVC
  16. Format/Info                              : High Efficiency Video Coding
  17. Format profile                           : Main 10@L5@High
  18. Codec ID                                 : V_MPEGH/ISO/HEVC
  19. Duration                                 : 1 h 36 min
  20. Bit rate                                 : 7 268 kb/s
  21. Width                                    : 1 920 pixels
  22. Height                                   : 808 pixels
  23. Display aspect ratio                     : 2.40:1
  24. Frame rate mode                          : Constant
  25. Frame rate                               : 24.000 FPS
  26. Color space                              : YUV
  27. Chroma subsampling                       : 4:2:0
  28. Bit depth                                : 10 bits
  29. Bits/(Pixel*Frame)                       : 0.195
  30. Stream size                              : 4.92 GiB (87%)
  31. Writing library                          : x265 3.5+20-17839cc0d:[Windows][GCC 11.2.0][64 bit] 10bit
  32. Encoding settings                        : cpuid=533541111039 / frame-threads=5 / numa-pools=24,24 / wpp / no-pmode / no-pme / no-psnr / no-ssim / log-level=2 / input-csp=1 / input-res=1920x808 / interlace=0 / total-frames=139657 / level-idc=0 / high-tier=1 / uhd-bd=0 / ref=5 / no-allow-non-conformance / no-repeat-headers / annexb / no-aud / no-eob / no-eos / no-hrd / info / hash=0 / no-temporal-layers / no-open-gop / min-keyint=24 / keyint=250 / gop-lookahead=0 / bframes=9 / b-adapt=2 / b-pyramid / bframe-bias=0 / rc-lookahead=60 / lookahead-slices=0 / NTMzNTQ=uuDQuD2mJt9fsCf / scenecut=40 / no-hist-scenecut / radl=0 / no-splice / no-intra-refresh / ctu=32 / min-cu-size=8 / no-rect / no-amp / max-tu-size=32 / tu-inter-depth=4 / tu-intra-depth=4 / limit-tu=0 / rdoq-level=2 / dynamic-rd=0.00 / no-ssim-rd / signhide / no-tskip / nr-intra=0 / nr-inter=0 / no-constrained-intra / no-strong-intra-smoothing / max-merge=5 / limit-refs=0 / no-limit-modes / me=3 / subme=5 / merange=57 / temporal-mvp / no-frame-dup / no-hme / weightp / weightb / no-analyze-src-pics / deblock=-1:-1 / no-sao / no-sao-non-deblock / rd=4 / selective-sao=0 / no-early-skip / no-rskip / no-fast-intra / no-tskip-fast / no-cu-lossless / b-intra / no-splitrd-skip / rdpenalty=0 / psy-rd=2.00 / psy-rdoq=5.00 / no-rd-refine / no-lossless / cbqpoffs=0 / crqpoffs=0 / rc=crf / crf=19.0 / qcomp=0.70 / qpstep=4 / stats-write=0 / stats-read=0 / vbv-maxrate=100000 / vbv-bufsize=100000 / vbv-init=0.9 / min-vbv-fullness=50.0 / max-vbv-fullness=80.0 / crf-max=0.0 / crf-min=0.0 / ipratio=1.40 / pbratio=1.30 / aq-mode=1 / aq-strength=0.90 / no-cutree / zone-count=0 / no-strict-cbr / qg-size=32 / no-rc-grain / qpmax=69 / qpmin=0 / no-const-vbv / sar=0 / overscan=0 / videoformat=5 / range=0 / colorprim=1 / transfer=1 / colormatrix=1 / chromaloc=0 / display-window=0 / cll=0,0 / min-luma=0 / max-luma=1023 / log2-max-poc-lsb=8 / vui-timing-info / vui-hrd-info / slices=1 / no-opt-qp-pps / no-opt-ref-list-length-pps / no-multi-pass-opt-rps / scenecut-bias=0.05 / hist-threshold=0.03 / no-opt-cu-delta-qp / no-aq-motion / no-hdr10 / no-hdr10-opt / no-dhdr10-opt / no-idr-recovery-sei / analysis-reuse-level=0 / analysis-save-reuse-level=0 / analysis-load-reuse-level=0 / scale-factor=0 / refine-intra=0 / refine-inter=0 / refine-mv=1 / refine-ctu-distortion=0 / no-limit-sao / ctu-info=0 / no-lowpass-dct / refine-analysis-type=0 / copy-pic=1 / max-ausize-factor=1.0 / no-dynamic-refine / no-single-sei / no-hevc-aq / no-svt / no-field / qp-adaptation-range=1.00 / scenecut-aware-qp=0conformance-window-offsets / right=0 / bottom=0 / NTMzNTQ= / decoder-max-rate=0 / no-vbv-live-multi-pass
  33. Default                                  : Yes
  34. Forced                                   : No
  35. Color range                              : Limited
  36. Color primaries                          : BT.709
  37. Transfer characteristics                 : BT.709
  38. Matrix coefficients                      : BT.709
  39. Audio
  40. ID                                       : 2
  41. Format                                   : E-AC-3
  42. Format/Info                              : Enhanced AC-3
  43. Commercial name                          : Dolby Digital Plus
  44. Codec ID                                 : A_EAC3
  45. Duration                                 : 1 h 36 min
  46. Bit rate mode                            : Constant
  47. Bit rate                                 : 1 024 kb/s
  48. Channel(s)                               : 6 channels
  49. Channel layout                           : L R C LFE Ls Rs
  50. Sampling rate                            : 48.0 kHz
  51. Frame rate                               : 31.250 FPS (1536 SPF)
  52. Compression mode                         : Lossy
  53. Stream size                              : 710 MiB (12%)
  54. Language                                 : English
  55. Service kind                             : Complete Main
  56. Default                                  : Yes
  57. Forced                                   : No
  58. Text #1
  59. ID                                       : 3
  60. ID in the original source medium         : 4612 (0x1204)
  61. Format                                   : PGS
  62. Muxing mode                              : zlib
  63. Codec ID                                 : S_HDMV/PGS
  64. Codec ID/Info                            : Picture based subtitle format used on BDs/HD-DVDs
  65. Duration                                 : 1 h 30 min
  66. Bit rate                                 : 19.9 kb/s
  67. Count of elements                        : 1165
  68. Stream size                              : 12.9 MiB (0%)
  69. Title                                    : chs
  70. Language                                 : Chinese
  71. Default                                  : Yes
  72. Forced                                   : No
  73. Original source medium                   : Blu-ray
  74. Text #2
  75. ID                                       : 4
  76. ID in the original source medium         : 4611 (0x1203)
  77. Format                                   : PGS
  78. Muxing mode                              : zlib
  79. Codec ID                                 : S_HDMV/PGS
  80. Codec ID/Info                            : Picture based subtitle format used on BDs/HD-DVDs
  81. Duration                                 : 1 h 30 min
  82. Bit rate                                 : 20.1 kb/s
  83. Count of elements                        : 1438
  84. Stream size                              : 13.0 MiB (0%)
  85. Language                                 : English
  86. Default                                  : No
  87. Forced                                   : No
  88. Original source medium                   : Blu-ray
  89. Menu
  90. 00:00:00.000                             : en:Chapter01
  91. 00:06:19.791                             : en:Chapter02
  92. 00:10:38.041                             : en:Chapter03
  93. 00:15:33.625                             : en:Chapter04
  94. 00:21:34.916                             : en:Chapter05
  95. 00:26:12.875                             : en:Chapter06
  96. 00:31:20.416                             : en:Chapter07
  97. 00:36:46.000                             : en:Chapter08
  98. 00:43:50.375                             : en:Chapter09
  99. 00:48:47.500                             : en:Chapter10
  100. 00:55:09.083                             : en:Chapter11
  101. 01:05:14.833                             : en:Chapter12
  102. 01:11:32.041                             : en:Chapter13
  103. 01:16:41.041                             : en:Chapter14
  104. 01:23:11.333                             : en:Chapter15
  105. 01:31:25.625                             : en:Chapter16





此处一般会放置磁力链或种子下载链接,不过此链接需要注册会员才能看到,点击“立即注册”
磁力链下载【下载链接仅对注册会员开放,登陆后可见】
BT9527电影天堂 1、BT9527电影天堂提供的BT文件均来源于互联网抓取,只供网友学习交流、技术提升使用。
2、我们遵守BitTorrent点对点协议原则,任何版权问题请联系原资源发布商,我们不处理任何版权纠纷,谢谢!如有争议请联系邮箱:BT9527#hotmail.com(#换成@)
3、如果您发现某页面或地址有错误,请联系站长邮箱BT9527#hotmail.com(#换成@),我们会尽快处理。您的热心是对BT9527电影天堂最大的支持。
4、本站建议去正规影院观看电影以支持电影行业发展。
最新回复 (0)

你可以在 登录 or 注册 后,对此帖发表评论!

返回
发新帖