钛[简体字幕].Titane.2021.BluRay.1080p.x265.10bit.DDP5.1-MiniHD 6.56GB

版主小s 16天前 122

✔资源类型:暂未分类   ✔电影年份:2021   ✔电影地区:其他   ✔电影分类:剧情

◎译  名 钛 / 变钛(港)
◎片  名 Titane
◎年  代 2021
◎产  地 法国 / 比利时
◎类  别 剧情 / 恐怖
◎语  言 法语
◎上映日期 2021-07-13(戛纳电影节) / 2021-07-14(法国)
◎IMDb链接 https://www.imdb.com/title/tt10944760/
◎豆瓣评分 6.4/10 (50232人评价)
◎豆瓣链接 https://movie.douban.com/subject/34820925/
◎片  长 108分钟
◎导  演 朱利亚·迪库诺 Julia Ducournau (id:1358263)
◎编  剧 朱利亚·迪库诺 Julia Ducournau (id:1358263)
◎演  员 阿加莎·罗塞勒 Agathe Rousselle (id:1459618)
       文森特·林顿 Vincent Lindon (id:1010741)
       加朗斯·马里利埃 Garance Marillier (id:1368368)
       贝特朗·波尼洛 Bertrand Bonello (id:1054161)
       拉明·西索科 Lamine Cissokho (id:1447233)
       弗雷德里克·雅尔丹 Frédéric Jardin (id:1021207)
       弗洛伦斯·詹纳斯 Florence Janas (id:1398997)
       Diong-Kéba Tacu Diong-Kéba Tacu (id:1411866)
        La?s Salameh (id:1463484)

◎简  介
  艾莉克西亚(阿加莎·罗塞勒 Agathe Rousselle 饰)是一名汽车模特,拥有曼妙身材的她靠着跳艳舞维持生计。早年间,一场车祸让艾莉克西亚的大脑中被医生植入了钛金属,这块金属随着时间的推移,渐渐影响了她的性格,让她变得暴戾而又狂躁,在钛金属的影响下,她甚至杀死了自己的双亲。不仅如此,艾莉克西亚还发现自己对汽车产生了性趣,在和汽车发生了性关系后,艾莉克西亚发现自己的身体逐渐出现了妊娠的征兆。                                       
                                    文森特(文森特·林顿 Vincent Lindon 饰)是消防队的队长,早年间,他的儿子失踪了,这些年来,他一直都没有放弃过寻找儿子的下落。命运让艾莉克西亚和文森特相遇了,艾莉克西亚女扮男装,假装成为文森特的儿子,和文森特开始了住在同一屋檐下的生活。她一边要努力维系自己的谎言不被戳穿,一遍还要隐藏渐渐变形的身体。当然,纸是包不住火的,在长久的压抑之后,艾莉...

◎获奖情况 (共15项)
  第74届戛纳电影节 (2021)
  主竞赛单元 金棕榈奖
   └──朱利亚·迪库诺 (id:1358263)
  酷儿棕榈奖(提名)
   └──朱利亚·迪库诺 (id:1358263)

  第75届英国电影学院奖 (2022)
  电影奖 最佳导演(提名)
   └──朱利亚·迪库诺 (id:1358263)

  第34届欧洲电影奖 (2021)
  最佳影片(提名)
  最佳导演(提名)
   └──朱利亚·迪库诺 (id:1358263)
  最佳女主角(提名)
   └──阿加莎·罗塞勒 (id:1459618)
  最佳男主角(提名)
   └──文森特·林顿 (id:1010741)
  最佳妆发

  第47届法国凯撒电影奖 (2022)
  最佳导演(提名)
   └──朱利亚·迪库诺 (id:1358263)
  最佳新人女演员(提名)
   └──阿加莎·罗塞勒 (id:1459618)
  最佳摄影(提名)
  最佳视觉效果(提名)

  第46届多伦多国际电影节 (2021)
  观众选择奖 午夜疯狂单元
   └──朱利亚·迪库诺 (id:1358263)

  第31届哥谭独立电影奖 (2021)
  最佳国际影片(提名)
   └──朱利亚·迪库诺 (id:1358263)

  第56届美国国家影评人协会奖 (2022)
  最佳男配角(提名)
   └──文森特·林顿 (id:1010741)

  1. ##### MediaInfo ######
  2. General
  3. Unique ID                                : 108768700542187080565751149878958109804 (0x51D416F91C5B2486B5981EFA9914346C)
  4. Complete name                            : Titane.2021.BluRay.1080p.x265.10bit.DDP5.1-MiniHD.mkv
  5. Format                                   : Matroska
  6. Format version                           : Version 4
  7. File size                                : 6.56 GiB
  8. Duration                                 : 1 h 47 min
  9. Overall bit rate                         : 8 700 kb/s
  10. Encoded date                             : UTC 2022-06-11 06:55:59
  11. Writing application                      : mkvmerge v68.0.0 ('The Curtain') 64-bit
  12. Writing library                          : libebml v1.4.2 + libmatroska v1.6.4
  13. Cover                                    : Yes
  14. Attachments                              : cover.jpg
  15. Video
  16. ID                                       : 1
  17. Format                                   : HEVC
  18. Format/Info                              : High Efficiency Video Coding
  19. Format profile                           : Main 10@L5@High
  20. Codec ID                                 : V_MPEGH/ISO/HEVC
  21. Duration                                 : 1 h 47 min
  22. Bit rate                                 : 7 669 kb/s
  23. Width                                    : 1 920 pixels
  24. Height                                   : 804 pixels
  25. Display aspect ratio                     : 2.40:1
  26. Frame rate mode                          : Constant
  27. Frame rate                               : 24.000 FPS
  28. Color space                              : YUV
  29. Chroma subsampling                       : 4:2:0
  30. Bit depth                                : 10 bits
  31. Bits/(Pixel*Frame)                       : 0.207
  32. Stream size                              : 5.78 GiB (88%)
  33. Writing library                          : x265 3.5+20-17839cc0d:[Windows][GCC 11.2.0][64 bit] 10bit
  34. Encoding settings                        : cpuid=533541111039 / frame-threads=5 / numa-pools=24,24 / wpp / no-pmode / no-pme / no-psnr / no-ssim / log-level=2 / input-csp=1 / input-res=1920x804 / interlace=0 / total-frames=155496 / level-idc=0 / high-tier=1 / uhd-bd=0 / ref=5 / no-allow-non-conformance / no-repeat-headers / annexb / no-aud / no-eob / no-eos / no-hrd / info / hash=0 / no-temporal-layers / no-open-gop / min-keyint=24 / keyint=250 / gop-lookahead=0 / bframes=9 / b-adapt=2 / b-pyramid / bframe-bias=0 / rc-lookahead=60 / lookahead-slices=0 / NTMzNTQ=uuDQuD2mJt9fsCf / scenecut=40 / no-hist-scenecut / radl=0 / no-splice / no-intra-refresh / ctu=32 / min-cu-size=8 / no-rect / no-amp / max-tu-size=32 / tu-inter-depth=4 / tu-intra-depth=4 / limit-tu=0 / rdoq-level=2 / dynamic-rd=0.00 / no-ssim-rd / signhide / no-tskip / nr-intra=0 / nr-inter=0 / no-constrained-intra / no-strong-intra-smoothing / max-merge=5 / limit-refs=0 / no-limit-modes / me=3 / subme=5 / merange=57 / temporal-mvp / no-frame-dup / no-hme / weightp / weightb / no-analyze-src-pics / deblock=-1:-1 / no-sao / no-sao-non-deblock / rd=4 / selective-sao=0 / no-early-skip / no-rskip / no-fast-intra / no-tskip-fast / no-cu-lossless / b-intra / no-splitrd-skip / rdpenalty=0 / psy-rd=2.00 / psy-rdoq=5.00 / no-rd-refine / no-lossless / cbqpoffs=0 / crqpoffs=0 / rc=crf / crf=17.5 / qcomp=0.70 / qpstep=4 / stats-write=0 / stats-read=0 / vbv-maxrate=100000 / vbv-bufsize=100000 / vbv-init=0.9 / min-vbv-fullness=50.0 / max-vbv-fullness=80.0 / crf-max=0.0 / crf-min=0.0 / ipratio=1.40 / pbratio=1.30 / aq-mode=1 / aq-strength=0.90 / no-cutree / zone-count=0 / no-strict-cbr / qg-size=32 / no-rc-grain / qpmax=69 / qpmin=0 / no-const-vbv / sar=0 / overscan=0 / videoformat=5 / range=0 / colorprim=1 / transfer=1 / colormatrix=1 / chromaloc=0 / display-window=0 / cll=0,0 / min-luma=0 / max-luma=1023 / log2-max-poc-lsb=8 / vui-timing-info / vui-hrd-info / slices=1 / no-opt-qp-pps / no-opt-ref-list-length-pps / no-multi-pass-opt-rps / scenecut-bias=0.05 / hist-threshold=0.03 / no-opt-cu-delta-qp / no-aq-motion / no-hdr10 / no-hdr10-opt / no-dhdr10-opt / no-idr-recovery-sei / analysis-reuse-level=0 / analysis-save-reuse-level=0 / analysis-load-reuse-level=0 / scale-factor=0 / refine-intra=0 / refine-inter=0 / refine-mv=1 / refine-ctu-distortion=0 / no-limit-sao / ctu-info=0 / no-lowpass-dct / refine-analysis-type=0 / copy-pic=1 / max-ausize-factor=1.0 / no-dynamic-refine / no-single-sei / no-hevc-aq / no-svt / no-field / qp-adaptation-range=1.00 / scenecut-aware-qp=0conformance-window-offsets / right=0 / bottom=0 / NTMzNTQ= / decoder-max-rate=0 / no-vbv-live-multi-pass
  35. Default                                  : Yes
  36. Forced                                   : No
  37. Color range                              : Limited
  38. Color primaries                          : BT.709
  39. Transfer characteristics                 : BT.709
  40. Matrix coefficients                      : BT.709
  41. Audio
  42. ID                                       : 2
  43. Format                                   : E-AC-3
  44. Format/Info                              : Enhanced AC-3
  45. Commercial name                          : Dolby Digital Plus
  46. Codec ID                                 : A_EAC3
  47. Duration                                 : 1 h 47 min
  48. Bit rate mode                            : Constant
  49. Bit rate                                 : 1 024 kb/s
  50. Channel(s)                               : 6 channels
  51. Channel layout                           : L R C LFE Ls Rs
  52. Sampling rate                            : 48.0 kHz
  53. Frame rate                               : 31.250 FPS (1536 SPF)
  54. Compression mode                         : Lossy
  55. Stream size                              : 791 MiB (12%)
  56. Language                                 : French
  57. Service kind                             : Complete Main
  58. Default                                  : Yes
  59. Forced                                   : No
  60. Text
  61. ID                                       : 3
  62. ID in the original source medium         : 4610 (0x1202)
  63. Format                                   : PGS
  64. Muxing mode                              : zlib
  65. Codec ID                                 : S_HDMV/PGS
  66. Codec ID/Info                            : Picture based subtitle format used on BDs/HD-DVDs
  67. Duration                                 : 1 h 39 min
  68. Bit rate                                 : 9 133 b/s
  69. Count of elements                        : 785
  70. Stream size                              : 6.51 MiB (0%)
  71. Title                                    : chs
  72. Language                                 : Chinese
  73. Default                                  : Yes
  74. Forced                                   : No
  75. Original source medium                   : Blu-ray
  76. Menu
  77. 00:00:00.000                             : Chapter01
  78. 00:09:42.000                             : Chapter02
  79. 00:16:54.500                             : Chapter03
  80. 00:28:40.666                             : Chapter04
  81. 00:36:36.708                             : Chapter05
  82. 00:46:07.791                             : Chapter06
  83. 00:55:21.250                             : Chapter07
  84. 01:03:39.708                             : Chapter08
  85. 01:12:50.000                             : Chapter09
  86. 01:22:16.625                             : Chapter10
  87. 01:32:49.041                             : Chapter11
  88. 01:42:24.791                             : Chapter12



此处一般会放置磁力链或种子下载链接,不过此链接需要注册会员才能看到,点击“立即注册”
磁力链下载【下载链接仅对注册会员开放,登陆后可见】
BT9527电影天堂 1、BT9527电影天堂提供的BT文件均来源于互联网抓取,只供网友学习交流、技术提升使用。
2、我们遵守BitTorrent点对点协议原则,任何版权问题请联系原资源发布商,我们不处理任何版权纠纷,谢谢!如有争议请联系邮箱:BT9527#hotmail.com(#换成@)
3、如果您发现某页面或地址有错误,请联系站长邮箱BT9527#hotmail.com(#换成@),我们会尽快处理。您的热心是对BT9527电影天堂最大的支持。
4、本站建议去正规影院观看电影以支持电影行业发展。
最新回复 (0)

你可以在 登录 or 注册 后,对此帖发表评论!

返回
发新帖