路易·德拉克斯的第九条命[简繁英字幕].The.9th.Life.of.Louis.Drax.2016.BluRay.1080p.x265.10bit.DDP5.1-MiniHD 7.45GB

版主小s 3月前 170

✔资源类型:暂未分类   ✔电影年份:2016   ✔电影地区:其他   ✔电影分类:悬疑

◎译  名 路易·德拉克斯的第九条命 / 路易的第九条命 / The Ninth Life of Louis Drax
◎片  名 The 9th Life of Louis Drax
◎年  代 2016
◎产  地 加拿大 / 英国 / 美国
◎类  别 悬疑 / 惊悚
◎语  言 英语
◎上映日期 2016-09-01(俄罗斯) / 2016-09-02(加拿大/英国/美国)
◎IMDb链接 https://www.imdb.com/title/tt3991412/
◎豆瓣评分 6.9/10 (3368人评价)
◎豆瓣链接 https://movie.douban.com/subject/26088326/
◎片  长 108分钟
◎导  演 亚历山大·阿嘉 Alexandre Aja (id:1022791)
◎编  剧 麦克思·明格拉 Max Minghella (id:1049577)
       丽兹·詹森 Liz Jensen (id:1368162)
◎演  员 詹米·多南 Jamie Dornan (id:1045101)
       艾登·朗沃斯 Aiden Longworth (id:1361246)
       莎拉·加顿 Sarah Gadon (id:1000183)
       迈克尔·亚当思韦特 Michael Adamthwaite (id:1169457)
       亚伦·保尔 Aaron Paul (id:1049498)
       贝克汉姆·斯科德里 Beckham Skodje (id:1368163)
       莫莉·帕克 Molly Parker (id:1019030)
       特瑞·陈 Terry Chen (id:1004684)
       戈尔迪·霍夫曼 Goldie Hoffman (id:1368164)
       朱利安·沃德姆 Julian Wadham (id:1160970)
       内尔斯·莱纳森 Nels Lennarson (id:1119612)
       安贾莉·杰 Anjali Jay (id:1349348)
       奥利弗·普莱特 Oliver Platt (id:1013849)
       丽娜·罗斯勒 Lina Roessler (id:1344450)
       卢克·卡米莱 Luke Camilleri (id:1341547)
       简·迈克格雷格 Jane McGregor (id:1345153)
       艾里斯·佩卢莉 Iris Paluly (id:1201190)
       芭芭拉·赫希 Barbara Hershey (id:1006998)
       斯宾塞·德雷弗 Spencer Drever (id:1339935)
       马克西姆·亚历山大 Maxime Alexandre (id:1005596)

◎简  介
  路易·德拉克斯是一个问题小孩:聪明,少年老成,满嘴谎言,而且还总是会发生一些危险、让人难安的意外事故。9岁的他已经发生了八次意外:第一次,出生时母亲难产;第二次,患上婴儿猝死综合症;第三次,突发痉挛,9分半钟没有呼吸;第四次,掉进里昂地铁的铁轨中,全身85%被电击…第九次,不幸坠崖,但在医生宣布其死亡两个小时后,他又奇迹般地活了下来,但是他的家庭也因此支离破碎。
  1. ##### MediaInfo ######
  2. General
  3. Unique ID                                : 153518822821143426814437535016002945905 (0x737EA658A05D24DAF3467B5092DE8371)
  4. Complete name                            : The.9th.Life.of.Louis.Drax.2016.BluRay.1080p.x265.10bit.DDP5.1-MiniHD.mkv
  5. Format                                   : Matroska
  6. Format version                           : Version 4
  7. File size                                : 7.45 GiB
  8. Duration                                 : 1 h 48 min
  9. Overall bit rate                         : 9 860 kb/s
  10. Movie name                               : The.9th.Life.of.Louis.Drax.2016.BluRay.1080p.x265.10bit.DDP5.1.MNHD-FRDS
  11. Encoded date                             : UTC 2022-06-15 07:07:26
  12. Writing application                      : mkvmerge v66.0.0 ('Josie') 64-bit
  13. Writing library                          : libebml v1.4.2 + libmatroska v1.6.4
  14. Cover                                    : Yes
  15. Attachments                              : cover.jpg
  16. Video
  17. ID                                       : 1
  18. Format                                   : HEVC
  19. Format/Info                              : High Efficiency Video Coding
  20. Format profile                           : Main 10@L5.1@High
  21. Codec ID                                 : V_MPEGH/ISO/HEVC
  22. Duration                                 : 1 h 48 min
  23. Bit rate                                 : 8 751 kb/s
  24. Width                                    : 1 912 pixels
  25. Height                                   : 804 pixels
  26. Display aspect ratio                     : 2.40:1
  27. Frame rate mode                          : Constant
  28. Frame rate                               : 23.976 (24000/1001/53354) FPS
  29. Color space                              : YUV
  30. Chroma subsampling                       : 4:2:0
  31. Bit depth                                : 10 bits
  32. Bits/(Pixel*Frame)                       : 0.237
  33. Stream size                              : 6.61 GiB (89%)
  34. Writing library                          : x265 3.5+29-3415705dd:[Windows][MSVC 1930][64 bit] 10bit
  35. Encoding settings                        : cpuid=533541111039 / frame-threads=5 / numa-pools=32 / wpp / pmode / no-pme / no-psnr / no-ssim / log-level=2 / input-csp=1 / input-res=1912x804 / interlace=0 / total-frames=155664 / level-idc=0 / high-tier=1 / uhd-bd=0 / ref=6 / no-allow-non-conformance / no-repeat-headers / annexb / no-aud / no-eob / no-eos / no-hrd / info / hash=0 / no-temporal-layers / no-open-gop / min-keyint=1 / keyint=250 / gop-lookahead=0 / bframes=8 / b-adapt=2 / b-pyramid / bframe-bias=0 / rc-lookahead=100 / lookahead-slices=0 / NTMzNTQ=uuDQuD2mJt9fsCf / scenecut=40 / no-hist-scenecut / radl=0 / no-splice / no-intra-refresh / ctu=32 / min-cu-size=8 / no-rect / no-amp / max-tu-size=32 / tu-inter-depth=4 / tu-intra-depth=4 / limit-tu=0 / rdoq-level=2 / dynamic-rd=0.00 / no-ssim-rd / signhide / no-tskip / nr-intra=0 / nr-inter=0 / no-constrained-intra / no-strong-intra-smoothing / max-merge=5 / limit-refs=0 / no-limit-modes / me=3 / subme=7 / merange=57 / temporal-mvp / no-frame-dup / no-hme / weightp / weightb / no-analyze-src-pics / deblock=-3:-3 / no-sao / no-sao-non-deblock / rd=4 / selective-sao=0 / no-early-skip / no-rskip / no-fast-intra / no-tskip-fast / no-cu-lossless / b-intra / no-splitrd-skip / rdpenalty=0 / psy-rd=1.50 / psy-rdoq=1.00 / no-rd-refine / no-lossless / cbqpoffs=-2 / crqpoffs=-2 / rc=crf / crf=18.4 / qcomp=0.65 / qpstep=4 / stats-write=0 / stats-read=0 / vbv-maxrate=160000 / vbv-bufsize=160000 / vbv-init=0.9 / min-vbv-fullness=50.0 / max-vbv-fullness=80.0 / crf-max=0.0 / crf-min=0.0 / ipratio=1.30 / pbratio=1.20 / aq-mode=1 / aq-strength=1.00 / no-cutree / zone-count=0 / no-strict-cbr / qg-size=8 / no-rc-grain / qpmax=69 / qpmin=0 / no-const-vbv / sar=0 / overscan=0 / videoformat=5 / range=0 / colorprim=1 / transfer=1 / colormatrix=1 / chromaloc=0 / display-window=0 / cll=0,0 / min-luma=0 / max-luma=1023 / log2-max-poc-lsb=8 / vui-timing-info / vui-hrd-info / slices=1 / no-opt-qp-pps / no-opt-ref-list-length-pps / no-multi-pass-opt-rps / scenecut-bias=0.05 / hist-threshold=0.03 / no-opt-cu-delta-qp / no-aq-motion / no-hdr10 / no-hdr10-opt / no-dhdr10-opt / no-idr-recovery-sei / analysis-reuse-level=0 / analysis-save-reuse-level=0 / analysis-load-reuse-level=0 / scale-factor=0 / refine-intra=0 / refine-inter=0 / refine-mv=1 / refine-ctu-distortion=0 / no-limit-sao / ctu-info=0 / no-lowpass-dct / refine-analysis-type=0 / copy-pic=1 / max-ausize-factor=1.0 / no-dynamic-refine / no-single-sei / no-hevc-aq / no-svt / no-field / qp-adaptation-range=1.00 / scenecut-aware-qp=0conformance-window-offsets / right=0 / bottom=0 / NTMzNTQ= / decoder-max-rate=0 / no-vbv-live-multi-pass
  36. Default                                  : Yes
  37. Forced                                   : No
  38. Color range                              : Limited
  39. Color primaries                          : BT.709
  40. Transfer characteristics                 : BT.709
  41. Matrix coefficients                      : BT.709
  42. Audio
  43. ID                                       : 2
  44. Format                                   : E-AC-3
  45. Format/Info                              : Enhanced AC-3
  46. Commercial name                          : Dolby Digital Plus
  47. Codec ID                                 : A_EAC3
  48. Duration                                 : 1 h 48 min
  49. Bit rate mode                            : Constant
  50. Bit rate                                 : 1 024 kb/s
  51. Channel(s)                               : 6 channels
  52. Channel layout                           : L R C LFE Ls Rs
  53. Sampling rate                            : 48.0 kHz
  54. Frame rate                               : 31.250 FPS (1536 SPF)
  55. Compression mode                         : Lossy
  56. Stream size                              : 793 MiB (10%)
  57. Language                                 : English
  58. Service kind                             : Complete Main
  59. Default                                  : Yes
  60. Forced                                   : No
  61. Text #1
  62. ID                                       : 3
  63. Format                                   : PGS
  64. Muxing mode                              : zlib
  65. Codec ID                                 : S_HDMV/PGS
  66. Codec ID/Info                            : Picture based subtitle format used on BDs/HD-DVDs
  67. Duration                                 : 1 h 47 min
  68. Bit rate                                 : 42.0 kb/s
  69. Count of elements                        : 2841
  70. Stream size                              : 32.2 MiB (0%)
  71. Title                                    : CHS&ENG
  72. Language                                 : Chinese
  73. Default                                  : Yes
  74. Forced                                   : No
  75. Text #2
  76. ID                                       : 4
  77. Format                                   : PGS
  78. Muxing mode                              : zlib
  79. Codec ID                                 : S_HDMV/PGS
  80. Codec ID/Info                            : Picture based subtitle format used on BDs/HD-DVDs
  81. Duration                                 : 1 h 47 min
  82. Bit rate                                 : 25.0 kb/s
  83. Count of elements                        : 2841
  84. Stream size                              : 19.2 MiB (0%)
  85. Title                                    : CHS
  86. Language                                 : Chinese
  87. Default                                  : No
  88. Forced                                   : No
  89. Text #3
  90. ID                                       : 5
  91. Format                                   : PGS
  92. Muxing mode                              : zlib
  93. Codec ID                                 : S_HDMV/PGS
  94. Codec ID/Info                            : Picture based subtitle format used on BDs/HD-DVDs
  95. Duration                                 : 1 h 47 min
  96. Bit rate                                 : 42.6 kb/s
  97. Count of elements                        : 2841
  98. Stream size                              : 32.6 MiB (0%)
  99. Title                                    : CHT&ENG
  100. Language                                 : Chinese
  101. Default                                  : No
  102. Forced                                   : No
  103. Text #4
  104. ID                                       : 6
  105. Format                                   : PGS
  106. Muxing mode                              : zlib
  107. Codec ID                                 : S_HDMV/PGS
  108. Codec ID/Info                            : Picture based subtitle format used on BDs/HD-DVDs
  109. Duration                                 : 1 h 47 min
  110. Bit rate                                 : 25.7 kb/s
  111. Count of elements                        : 2841
  112. Stream size                              : 19.6 MiB (0%)
  113. Title                                    : CHT
  114. Language                                 : Chinese
  115. Default                                  : No
  116. Forced                                   : No
  117. Text #5
  118. ID                                       : 7
  119. Format                                   : PGS
  120. Muxing mode                              : zlib
  121. Codec ID                                 : S_HDMV/PGS
  122. Codec ID/Info                            : Picture based subtitle format used on BDs/HD-DVDs
  123. Duration                                 : 1 h 47 min
  124. Bit rate                                 : 41.0 kb/s
  125. Count of elements                        : 3104
  126. Stream size                              : 31.4 MiB (0%)
  127. Title                                    : ENG
  128. Language                                 : English
  129. Default                                  : No
  130. Forced                                   : No
  131. Menu
  132. 00:00:00.000                             : en:Chapter 01
  133. 00:06:47.365                             : en:Chapter 02
  134. 00:12:14.817                             : en:Chapter 03
  135. 00:17:22.291                             : en:Chapter 04
  136. 00:22:47.657                             : en:Chapter 05
  137. 00:30:06.054                             : en:Chapter 06
  138. 00:37:27.662                             : en:Chapter 07
  139. 00:43:14.383                             : en:Chapter 08
  140. 00:48:41.293                             : en:Chapter 09
  141. 00:57:06.506                             : en:Chapter 10
  142. 01:02:41.048                             : en:Chapter 11
  143. 01:07:14.071                             : en:Chapter 12
  144. 01:14:28.255                             : en:Chapter 13
  145. 01:20:15.393                             : en:Chapter 14
  146. 01:25:10.396                             : en:Chapter 15
  147. 01:38:36.035                             : en:Chapter 16



此处一般会放置磁力链或种子下载链接,不过此链接需要注册会员才能看到,点击“立即注册”
磁力链下载【下载链接仅对注册会员开放,登陆后可见】
BT9527电影天堂 1、BT9527电影天堂提供的BT文件均来源于互联网抓取,只供网友学习交流、技术提升使用。
2、我们遵守BitTorrent点对点协议原则,任何版权问题请联系原资源发布商,我们不处理任何版权纠纷,谢谢!如有争议请联系邮箱:BT9527#hotmail.com(#换成@)
3、如果您发现某页面或地址有错误,请联系站长邮箱BT9527#hotmail.com(#换成@),我们会尽快处理。您的热心是对BT9527电影天堂最大的支持。
4、本站建议去正规影院观看电影以支持电影行业发展。
最新回复 (0)

你可以在 登录 or 注册 后,对此帖发表评论!

返回