自己去看[简英字幕].Idi.i.smotri.AKA.Come.and.See.1985.FRA.BluRay.1080p.x265.10bit.DDP3.1-MiniHD 19.98GB

版主小s 3月前 150

✔资源类型:暂未分类   ✔电影年份:更 早   ✔电影地区:其他   ✔电影分类:剧情

◎译  名 自己去看 / 见证(台) / 炎628 / 过来瞧瞧 / 屠杀安魂曲 / 炙628 / Come And See / Idi i smotri
◎片  名 Иди и смотри
◎年  代 1985
◎产  地 苏联
◎类  别 剧情 / 战争
◎语  言 白俄罗斯语 / 俄语 / 德语
◎上映日期 1985-07-09(莫斯科电影节) / 1985-10-17(匈牙利)
◎IMDb链接 https://www.imdb.com/title/tt0091251/
◎豆瓣评分 8.8/10 (12715人评价)
◎豆瓣链接 https://movie.douban.com/subject/1422186/
◎片  长 143分钟
◎导  演 依莱姆·克里莫夫 Elem Klimov (id:1009869)
◎编  剧 依莱姆·克里莫夫 Elem Klimov (id:1009869)
       安列斯·阿达莫维奇 Ales Adamovich (id:1436829)
◎演  员 阿列克谢·克拉夫琴科 Aleksey Kravchenko (id:1111010)
       奥尔加·米罗诺娃 Olga Mironova (id:1349864)
       柳博米拉斯·劳恰维丘斯 Liubomiras Lauciavicius (id:1104573)
       佛拉德斯·巴格多纳斯 Vladas Bagdonas (id:1320636)
       维克托·洛伦茨 Viktor Lorents (id:1114732)
       亚历山大·别尔达 Aleksandr Berda (id:1062309)
       彼得·梅尔库里耶夫 Pyotr Merkuryev (id:1115189)
       阿纳托利·斯利夫尼科夫 Anatoli Slivnikov (id:1159782)
       Aleksei Rodionov Aleksei Rodionov (id:1046396)

◎简  介
  这是一部很特殊的战争题材电影,它真实地描写了德占区人民的悲惨遭遇和场面,以及人们面对突如其来的灾难的恐惧,反映了战争的真实面目。它既不同于《斯大林格勒保卫战》、《攻占柏林》这些正面战场的血肉横飞、排山倒海、摧枯拉朽,也不同与《这里的黎明静悄悄》、《星》所描写的局部战斗中体现的平凡悲壮,更不是战地浪漫曲,而是降临在平民百姓头上血淋淋的残酷。影片的事件和恐怖场面远超过任何一部描写德军集中营的电影,令人毛骨悚然,提醒胆小和心软者慎看。
  1. ##### MediaInfo ######
  2. General
  3. Unique ID                                : 56875591445906511238644530522697427867 (0x2AC9D728D914B05F621BEF68469EEB9B)
  4. Complete name                            : Idi.i.smotri.AKA.Come.and.See.1985.FRA.BluRay.1080p.x265.10bit.DDP3.1-MiniHD.mkv
  5. Format                                   : Matroska
  6. Format version                           : Version 4
  7. File size                                : 20.0 GiB
  8. Duration                                 : 2 h 22 min
  9. Overall bit rate mode                    : Variable
  10. Overall bit rate                         : 20.0 Mb/s
  11. Movie name                               : Idi i smotri AKA Come and See [1985] FRA BluRay 1080p - FRDS
  12. Encoded date                             : UTC 2022-06-08 10:17:25
  13. Writing application                      : mkvmerge v68.0.0 ('The Curtain') 64-bit
  14. Writing library                          : libebml v1.4.2 + libmatroska v1.6.4
  15. Video
  16. ID                                       : 1
  17. Format                                   : HEVC
  18. Format/Info                              : High Efficiency Video Coding
  19. Format profile                           : Main 10@L5.1@High
  20. Codec ID                                 : V_MPEGH/ISO/HEVC
  21. Duration                                 : 2 h 22 min
  22. Bit rate                                 : 18.5 Mb/s
  23. Width                                    : 1 476 pixels
  24. Height                                   : 1 080 pixels
  25. Display aspect ratio                     : 4:3
  26. Frame rate mode                          : Constant
  27. Frame rate                               : 23.976 (24000/1001/53354) FPS
  28. Color space                              : YUV
  29. Chroma subsampling                       : 4:2:0
  30. Bit depth                                : 10 bits
  31. Bits/(Pixel*Frame)                       : 0.483
  32. Stream size                              : 18.4 GiB (92%)
  33. Writing library                          : x265 3.5+36-9b59d4554:[Windows][MSVC 1931][64 bit] 10bit
  34. Encoding settings                        : cpuid=533541111039 / frame-threads=5 / numa-pools=20,20 / wpp / pmode / no-pme / no-psnr / no-ssim / log-level=2 / input-csp=1 / input-res=1476x1080 / interlace=0 / total-frames=205659 / level-idc=51 / high-tier=1 / uhd-bd=0 / ref=5 / no-allow-non-conformance / no-repeat-headers / annexb / no-aud / no-eob / no-eos / no-hrd / info / hash=0 / no-temporal-layers / no-open-gop / min-keyint=1 / keyint=250 / gop-lookahead=0 / bframes=8 / b-adapt=2 / b-pyramid / bframe-bias=0 / rc-lookahead=100 / lookahead-slices=0 / NTMzNTQ=uuDQuD2mJt9fsCf / scenecut=40 / no-hist-scenecut / radl=0 / no-splice / no-intra-refresh / ctu=32 / min-cu-size=8 / no-rect / no-amp / max-tu-size=32 / tu-inter-depth=4 / tu-intra-depth=4 / limit-tu=0 / rdoq-level=2 / dynamic-rd=0.00 / no-ssim-rd / signhide / tskip / nr-intra=0 / nr-inter=0 / no-constrained-intra / no-strong-intra-smoothing / max-merge=5 / limit-refs=0 / no-limit-modes / me=3 / subme=7 / merange=57 / temporal-mvp / no-frame-dup / no-hme / weightp / weightb / no-analyze-src-pics / deblock=-3:-3 / no-sao / no-sao-non-deblock / rd=4 / selective-sao=0 / no-early-skip / no-rskip / no-fast-intra / no-tskip-fast / no-cu-lossless / b-intra / no-splitrd-skip / rdpenalty=0 / psy-rd=1.50 / psy-rdoq=1.00 / no-rd-refine / no-lossless / cbqpoffs=-2 / crqpoffs=-2 / rc=crf / crf=19.3 / qcomp=0.65 / qpstep=4 / stats-write=0 / stats-read=0 / vbv-maxrate=160000 / vbv-bufsize=160000 / vbv-init=0.9 / min-vbv-fullness=50.0 / max-vbv-fullness=80.0 / crf-max=0.0 / crf-min=0.0 / ipratio=1.30 / pbratio=1.20 / aq-mode=1 / aq-strength=1.00 / no-cutree / zone-count=0 / no-strict-cbr / qg-size=8 / no-rc-grain / qpmax=69 / qpmin=0 / no-const-vbv / sar=0 / overscan=0 / videoformat=5 / range=0 / colorprim=1 / transfer=1 / colormatrix=1 / chromaloc=0 / display-window=0 / cll=0,0 / min-luma=0 / max-luma=1023 / log2-max-poc-lsb=8 / vui-timing-info / vui-hrd-info / slices=1 / no-opt-qp-pps / no-opt-ref-list-length-pps / no-multi-pass-opt-rps / scenecut-bias=0.05 / hist-threshold=0.03 / no-opt-cu-delta-qp / no-aq-motion / no-hdr10 / no-hdr10-opt / no-dhdr10-opt / no-idr-recovery-sei / analysis-reuse-level=0 / analysis-save-reuse-level=0 / analysis-load-reuse-level=0 / scale-factor=0 / refine-intra=0 / refine-inter=0 / refine-mv=1 / refine-ctu-distortion=0 / no-limit-sao / ctu-info=0 / no-lowpass-dct / refine-analysis-type=0 / copy-pic=1 / max-ausize-factor=1.0 / no-dynamic-refine / no-single-sei / no-hevc-aq / no-svt / no-field / qp-adaptation-range=1.00 / scenecut-aware-qp=0conformance-window-offsets / right=0 / bottom=0 / NTMzNTQ= / decoder-max-rate=0 / no-vbv-live-multi-pass
  35. Default                                  : Yes
  36. Forced                                   : No
  37. Color range                              : Limited
  38. Color primaries                          : BT.709
  39. Transfer characteristics                 : BT.709
  40. Matrix coefficients                      : BT.709
  41. Audio #1
  42. ID                                       : 2
  43. Format                                   : E-AC-3
  44. Format/Info                              : Enhanced AC-3
  45. Commercial name                          : Dolby Digital Plus
  46. Codec ID                                 : A_EAC3
  47. Duration                                 : 2 h 22 min
  48. Bit rate mode                            : Constant
  49. Bit rate                                 : 768 kb/s
  50. Channel(s)                               : 4 channels
  51. Channel layout                           : L R C LFE
  52. Sampling rate                            : 48.0 kHz
  53. Frame rate                               : 62.500 FPS (768 SPF)
  54. Compression mode                         : Lossy
  55. Stream size                              : 784 MiB (4%)
  56. Language                                 : Belarusian
  57. Service kind                             : Complete Main
  58. Default                                  : Yes
  59. Forced                                   : No
  60. Audio #2
  61. ID                                       : 3
  62. Format                                   : FLAC
  63. Format/Info                              : Free Lossless Audio Codec
  64. Codec ID                                 : A_FLAC
  65. Duration                                 : 2 h 22 min
  66. Bit rate mode                            : Variable
  67. Bit rate                                 : 698 kb/s
  68. Channel(s)                               : 1 channel
  69. Channel layout                           : C
  70. Sampling rate                            : 48.0 kHz
  71. Frame rate                               : 11.719 FPS (4096 SPF)
  72. Bit depth                                : 24 bits
  73. Compression mode                         : Lossless
  74. Stream size                              : 714 MiB (3%)
  75. Title                                    : Original Mono Mix / FLAC Audio / 1.0 / 48 kHz / 698 kbps / 24-bit / The Criterion Collection (USA)
  76. Writing library                          : libFLAC 1.3.4 (UTC 2022-02-20)
  77. Language                                 : Belarusian
  78. Default                                  : No
  79. Forced                                   : No
  80. Audio #3
  81. ID                                       : 4
  82. Format                                   : Opus
  83. Codec ID                                 : A_OPUS
  84. Duration                                 : 2 h 22 min
  85. Bit rate                                 : 55.0 kb/s
  86. Channel(s)                               : 2 channels
  87. Channel layout                           : L R
  88. Sampling rate                            : 48.0 kHz
  89. Frame rate                               : 50.000 FPS (960 SPF)
  90. Compression mode                         : Lossy
  91. Stream size                              : 56.2 MiB (0%)
  92. Title                                    : Commentary with curator Barbara Wurm and film critic Olaf M?ller
  93. Writing library                          : opusenc from opus-tools 0.2-3-gf5f571b
  94. Language                                 : German
  95. Default                                  : Yes
  96. Forced                                   : No
  97. ENCODER_OPTIONS                          : --bitrate 64
  98. Text #1
  99. ID                                       : 5
  100. Format                                   : UTF-8
  101. Codec ID                                 : S_TEXT/UTF8
  102. Codec ID/Info                            : UTF-8 Plain Text
  103. Duration                                 : 2 h 22 min
  104. Bit rate                                 : 43 b/s
  105. Count of elements                        : 626
  106. Stream size                              : 45.0 KiB (0%)
  107. Title                                    : Chs&Eng
  108. Language                                 : Chinese
  109. Default                                  : Yes
  110. Forced                                   : No
  111. Text #2
  112. ID                                       : 6
  113. Format                                   : ASS
  114. Codec ID                                 : S_TEXT/ASS
  115. Codec ID/Info                            : Advanced Sub Station Alpha
  116. Duration                                 : 2 h 22 min
  117. Bit rate                                 : 55 b/s
  118. Count of elements                        : 626
  119. Compression mode                         : Lossless
  120. Stream size                              : 58.3 KiB (0%)
  121. Title                                    : Chs&Eng
  122. Language                                 : Chinese
  123. Default                                  : No
  124. Forced                                   : No
  125. Text #3
  126. ID                                       : 7
  127. Format                                   : UTF-8
  128. Codec ID                                 : S_TEXT/UTF8
  129. Codec ID/Info                            : UTF-8 Plain Text
  130. Duration                                 : 2 h 20 min
  131. Bit rate                                 : 22 b/s
  132. Count of elements                        : 620
  133. Stream size                              : 23.1 KiB (0%)
  134. Language                                 : Romanian
  135. Default                                  : No
  136. Forced                                   : No
  137. Text #4
  138. ID                                       : 8
  139. Format                                   : PGS
  140. Muxing mode                              : zlib
  141. Codec ID                                 : S_HDMV/PGS
  142. Codec ID/Info                            : Picture based subtitle format used on BDs/HD-DVDs
  143. Duration                                 : 2 h 22 min
  144. Bit rate                                 : 16.2 kb/s
  145. Count of elements                        : 1468
  146. Stream size                              : 16.5 MiB (0%)
  147. Title                                    : English (The Criterion Collection)
  148. Language                                 : English
  149. Default                                  : No
  150. Forced                                   : No
  151. Text #5
  152. ID                                       : 9
  153. Format                                   : PGS
  154. Muxing mode                              : zlib
  155. Codec ID                                 : S_HDMV/PGS
  156. Codec ID/Info                            : Picture based subtitle format used on BDs/HD-DVDs
  157. Duration                                 : 2 h 22 min
  158. Bit rate                                 : 10.2 kb/s
  159. Count of elements                        : 1258
  160. Stream size                              : 10.5 MiB (0%)
  161. Language                                 : Dutch
  162. Default                                  : No
  163. Forced                                   : No
  164. Text #6
  165. ID                                       : 10
  166. Format                                   : PGS
  167. Muxing mode                              : zlib
  168. Codec ID                                 : S_HDMV/PGS
  169. Codec ID/Info                            : Picture based subtitle format used on BDs/HD-DVDs
  170. Duration                                 : 2 h 22 min
  171. Bit rate                                 : 13.6 kb/s
  172. Count of elements                        : 1896
  173. Stream size                              : 13.9 MiB (0%)
  174. Title                                    : French (Potemkine)
  175. Language                                 : French
  176. Default                                  : No
  177. Forced                                   : No
  178. Text #7
  179. ID                                       : 11
  180. Format                                   : PGS
  181. Muxing mode                              : zlib
  182. Codec ID                                 : S_HDMV/PGS
  183. Codec ID/Info                            : Picture based subtitle format used on BDs/HD-DVDs
  184. Duration                                 : 2 h 22 min
  185. Bit rate                                 : 11.3 kb/s
  186. Count of elements                        : 1252
  187. Stream size                              : 11.5 MiB (0%)
  188. Title                                    : French (Lumière Publishing)
  189. Language                                 : French
  190. Default                                  : No
  191. Forced                                   : No
  192. Text #8
  193. ID                                       : 12
  194. Format                                   : PGS
  195. Muxing mode                              : zlib
  196. Codec ID                                 : S_HDMV/PGS
  197. Codec ID/Info                            : Picture based subtitle format used on BDs/HD-DVDs
  198. Duration                                 : 2 h 22 min
  199. Bit rate                                 : 10.3 kb/s
  200. Count of elements                        : 1254
  201. Stream size                              : 10.5 MiB (0%)
  202. Language                                 : German
  203. Default                                  : No
  204. Forced                                   : No
  205. Text #9
  206. ID                                       : 13
  207. Format                                   : UTF-8
  208. Codec ID                                 : S_TEXT/UTF8
  209. Codec ID/Info                            : UTF-8 Plain Text
  210. Duration                                 : 2 h 22 min
  211. Bit rate                                 : 19 b/s
  212. Count of elements                        : 631
  213. Stream size                              : 20.7 KiB (0%)
  214. Language                                 : English
  215. Default                                  : No
  216. Forced                                   : No
  217. Text #10
  218. ID                                       : 14
  219. Format                                   : UTF-8
  220. Codec ID                                 : S_TEXT/UTF8
  221. Codec ID/Info                            : UTF-8 Plain Text
  222. Duration                                 : 2 h 20 min
  223. Bit rate                                 : 29 b/s
  224. Count of elements                        : 698
  225. Stream size                              : 30.6 KiB (0%)
  226. Language                                 : Russian
  227. Default                                  : No
  228. Forced                                   : No
  229. Menu
  230. 00:00:00.000                             : en:Lucky Dog
  231. 00:08:17.872                             : en:Mama
  232. 00:15:45.778                             : en:The Photograph
  233. 00:20:14.255                             : en:To the Last Man
  234. 00:27:43.662                             : en:Glasha
  235. 00:40:04.611                             : en:Through the Trees
  236. 00:45:36.400                             : en:Home
  237. 00:57:45.337                             : en:Too Late
  238. 01:06:43.541                             : en:March On
  239. 01:15:42.079                             : en:Crossfire
  240. 01:25:06.143                             : en:Like Ghosts
  241. 01:34:07.684                             : en:Perekhody
  242. 01:41:41.679                             : en:The Barn
  243. 02:01:22.942                             : en:Enough
  244. 02:14:20.636                             : en:Mother's Arms





此处一般会放置磁力链或种子下载链接,不过此链接需要注册会员才能看到,点击“立即注册”
磁力链下载【下载链接仅对注册会员开放,登陆后可见】
BT9527电影天堂 1、BT9527电影天堂提供的BT文件均来源于互联网抓取,只供网友学习交流、技术提升使用。
2、我们遵守BitTorrent点对点协议原则,任何版权问题请联系原资源发布商,我们不处理任何版权纠纷,谢谢!如有争议请联系邮箱:BT9527#hotmail.com(#换成@)
3、如果您发现某页面或地址有错误,请联系站长邮箱BT9527#hotmail.com(#换成@),我们会尽快处理。您的热心是对BT9527电影天堂最大的支持。
4、本站建议去正规影院观看电影以支持电影行业发展。
最新回复 (0)

你可以在 登录 or 注册 后,对此帖发表评论!

返回