黑金营救[简英字幕].Blacklight.2022.BluRay.1080p.x265.10bit.DDP5.1-MiniHD 6.11GB

版主小s 10天前 87

✔资源类型:暂未分类   ✔电影年份:2022   ✔电影地区:大陆   ✔电影分类:动作
黑金营救[简英字幕].Blacklight.2022.BluRay.1080p.x265.10bit.DDP5.1-MiniHD 6.11GB

◎译  名 黑金营救 / 黑光行动(台) / 黑杀潜行(港) / 特工本色
◎片  名 Blacklight
◎年  代 2022
◎产  地 中国大陆 / 澳大利亚 / 美国
◎类  别 动作 / 惊悚
◎语  言 英语
◎上映日期 2022-02-10(澳大利亚) / 2022-02-11(美国)
◎IMDb链接 https://www.imdb.com/title/tt14060094/
◎豆瓣评分 4.3/10 (3044人评价)
◎豆瓣链接 https://movie.douban.com/subject/35399990/
◎片  长 108分钟
◎导  演 马克·威廉姆斯 Mark Williams (id:1373966)
◎编  剧 尼克·梅 Nick May  (id:1468010)
       马克·威廉姆斯 Mark Williams (id:1373966)
       布兰登·雷维斯 Brandon Reavis (id:1454066)
◎演  员 连姆·尼森 Liam Neeson (id:1031220)
       艾美·拉韦尔-兰普曼 Emmy Raver-Lampman (id:1410757)
       艾丹·奎因 Aidan Quinn (id:1031890)
       泰勒·约翰·史密斯 Taylor John Smith (id:1349152)
       克莱尔·范·德·波姆 Claire van der Boom (id:1313440)
       雅艾尔·斯通 Yael Stone (id:1329953)
       扎克·莱蒙斯 Zac Lemons (id:1463460)
       蒂姆·德莱克斯 Tim Draxl (id:1197399)
       乔治亚·福纳德 Georgia Flood (id:1329737)
       卡罗琳·布拉齐尔 Caroline Brazier (id:1408717)
       梅尔·贾森 Mel Jarnson (id:1454628)
       安东尼·J·夏普 Anthony J. Sharpe (id:1441806)
       克拉拉·赫尔姆斯 Clara Helms (id:1366585)
       达米恩·博迪 Damien Bodie (id:1064930)
       陈艾琳 Irene Chen (id:1390133)
       迈克尔·M·福斯特 Michael M. Foster (id:1394570)
       耶瑟·斯彭斯 Yesse Spence (id:1454078)
       托德·列维 Todd Levi (id:1454067)
       加布里埃拉·森戈斯 Gabriella Sengos (id:1467362)

◎简  介
  FBI老特工特拉维斯?布洛克(连姆?尼森 Liam Neeson 饰)受命营救遇险的卧底探员,却发现自己置身于一场致命阴谋的故事。

  1. ##### MediaInfo ######
  2. General
  3. Unique ID                                : 19388491110375329923915226010968046041 (0xE96166A5F073276138AFA20211EB9D9)
  4. Complete name                            : Blacklight.2022.BluRay.1080p.x265.10bit.DDP5.1-MiniHD.mkv
  5. Format                                   : Matroska
  6. Format version                           : Version 4
  7. File size                                : 6.11 GiB
  8. Duration                                 : 1 h 44 min
  9. Overall bit rate                         : 8 334 kb/s
  10. Encoded date                             : UTC 2022-06-07 18:21:22
  11. Writing application                      : mkvmerge v68.0.0 ('The Curtain') 64-bit
  12. Writing library                          : libebml v1.4.2 + libmatroska v1.6.4
  13. Video
  14. ID                                       : 1
  15. Format                                   : HEVC
  16. Format/Info                              : High Efficiency Video Coding
  17. Format profile                           : Main 10@L5@High
  18. Codec ID                                 : V_MPEGH/ISO/HEVC
  19. Duration                                 : 1 h 44 min
  20. Bit rate                                 : 7 265 kb/s
  21. Width                                    : 1 920 pixels
  22. Height                                   : 804 pixels
  23. Display aspect ratio                     : 2.40:1
  24. Frame rate mode                          : Constant
  25. Frame rate                               : 23.976 (24000/1001/53354) FPS
  26. Color space                              : YUV
  27. Chroma subsampling                       : 4:2:0
  28. Bit depth                                : 10 bits
  29. Bits/(Pixel*Frame)                       : 0.196
  30. Stream size                              : 5.32 GiB (87%)
  31. Writing library                          : x265 3.5+20-17839cc0d:[Windows][GCC 11.2.0][64 bit] 10bit
  32. Encoding settings                        : cpuid=533541111039 / frame-threads=5 / numa-pools=24,24 / wpp / no-pmode / no-pme / no-psnr / no-ssim / log-level=2 / input-csp=1 / input-res=1920x804 / interlace=0 / total-frames=150889 / level-idc=0 / high-tier=1 / uhd-bd=0 / ref=5 / no-allow-non-conformance / no-repeat-headers / annexb / no-aud / no-eob / no-eos / no-hrd / info / hash=0 / no-temporal-layers / no-open-gop / min-keyint=23 / keyint=250 / gop-lookahead=0 / bframes=9 / b-adapt=2 / b-pyramid / bframe-bias=0 / rc-lookahead=60 / lookahead-slices=0 / NTMzNTQ=uuDQuD2mJt9fsCf / scenecut=40 / no-hist-scenecut / radl=0 / no-splice / no-intra-refresh / ctu=32 / min-cu-size=8 / no-rect / no-amp / max-tu-size=32 / tu-inter-depth=4 / tu-intra-depth=4 / limit-tu=0 / rdoq-level=2 / dynamic-rd=0.00 / no-ssim-rd / signhide / no-tskip / nr-intra=0 / nr-inter=0 / no-constrained-intra / no-strong-intra-smoothing / max-merge=5 / limit-refs=0 / no-limit-modes / me=3 / subme=5 / merange=57 / temporal-mvp / no-frame-dup / no-hme / weightp / weightb / no-analyze-src-pics / deblock=-1:-1 / no-sao / no-sao-non-deblock / rd=4 / selective-sao=0 / no-early-skip / no-rskip / no-fast-intra / no-tskip-fast / no-cu-lossless / b-intra / no-splitrd-skip / rdpenalty=0 / psy-rd=2.00 / psy-rdoq=5.00 / no-rd-refine / no-lossless / cbqpoffs=0 / crqpoffs=0 / rc=crf / crf=18.5 / qcomp=0.70 / qpstep=4 / stats-write=0 / stats-read=0 / vbv-maxrate=100000 / vbv-bufsize=100000 / vbv-init=0.9 / min-vbv-fullness=50.0 / max-vbv-fullness=80.0 / crf-max=0.0 / crf-min=0.0 / ipratio=1.40 / pbratio=1.30 / aq-mode=1 / aq-strength=0.90 / no-cutree / zone-count=0 / no-strict-cbr / qg-size=32 / no-rc-grain / qpmax=69 / qpmin=0 / no-const-vbv / sar=0 / overscan=0 / videoformat=5 / range=0 / colorprim=1 / transfer=1 / colormatrix=1 / chromaloc=0 / display-window=0 / cll=0,0 / min-luma=0 / max-luma=1023 / log2-max-poc-lsb=8 / vui-timing-info / vui-hrd-info / slices=1 / no-opt-qp-pps / no-opt-ref-list-length-pps / no-multi-pass-opt-rps / scenecut-bias=0.05 / hist-threshold=0.03 / no-opt-cu-delta-qp / no-aq-motion / no-hdr10 / no-hdr10-opt / no-dhdr10-opt / no-idr-recovery-sei / analysis-reuse-level=0 / analysis-save-reuse-level=0 / analysis-load-reuse-level=0 / scale-factor=0 / refine-intra=0 / refine-inter=0 / refine-mv=1 / refine-ctu-distortion=0 / no-limit-sao / ctu-info=0 / no-lowpass-dct / refine-analysis-type=0 / copy-pic=1 / max-ausize-factor=1.0 / no-dynamic-refine / no-single-sei / no-hevc-aq / no-svt / no-field / qp-adaptation-range=1.00 / scenecut-aware-qp=0conformance-window-offsets / right=0 / bottom=0 / NTMzNTQ= / decoder-max-rate=0 / no-vbv-live-multi-pass
  33. Default                                  : Yes
  34. Forced                                   : No
  35. Color range                              : Limited
  36. Color primaries                          : BT.709
  37. Transfer characteristics                 : BT.709
  38. Matrix coefficients                      : BT.709
  39. Audio
  40. ID                                       : 2
  41. Format                                   : E-AC-3
  42. Format/Info                              : Enhanced AC-3
  43. Commercial name                          : Dolby Digital Plus
  44. Codec ID                                 : A_EAC3
  45. Duration                                 : 1 h 44 min
  46. Bit rate mode                            : Constant
  47. Bit rate                                 : 1 024 kb/s
  48. Channel(s)                               : 6 channels
  49. Channel layout                           : L R C LFE Ls Rs
  50. Sampling rate                            : 48.0 kHz
  51. Frame rate                               : 31.250 FPS (1536 SPF)
  52. Compression mode                         : Lossy
  53. Stream size                              : 768 MiB (12%)
  54. Language                                 : English
  55. Service kind                             : Complete Main
  56. Default                                  : Yes
  57. Forced                                   : No
  58. Text #1
  59. ID                                       : 3
  60. ID in the original source medium         : 4610 (0x1202)
  61. Format                                   : PGS
  62. Muxing mode                              : zlib
  63. Codec ID                                 : S_HDMV/PGS
  64. Codec ID/Info                            : Picture based subtitle format used on BDs/HD-DVDs
  65. Duration                                 : 1 h 35 min
  66. Bit rate                                 : 39.7 kb/s
  67. Count of elements                        : 1623
  68. Stream size                              : 27.1 MiB (0%)
  69. Title                                    : chs
  70. Language                                 : Chinese
  71. Default                                  : Yes
  72. Forced                                   : No
  73. Original source medium                   : Blu-ray
  74. Text #2
  75. ID                                       : 4
  76. ID in the original source medium         : 4608 (0x1200)
  77. Format                                   : PGS
  78. Muxing mode                              : zlib
  79. Codec ID                                 : S_HDMV/PGS
  80. Codec ID/Info                            : Picture based subtitle format used on BDs/HD-DVDs
  81. Duration                                 : 1 h 38 min
  82. Bit rate                                 : 43.7 kb/s
  83. Count of elements                        : 2690
  84. Stream size                              : 30.9 MiB (0%)
  85. Language                                 : English
  86. Default                                  : No
  87. Forced                                   : No
  88. Original source medium                   : Blu-ray
  89. Menu
  90. 00:00:00.000                             : Chapter01
  91. 00:04:14.921                             : Chapter02
  92. 00:09:35.658                             : Chapter03
  93. 00:12:38.841                             : Chapter04
  94. 00:17:24.168                             : Chapter05
  95. 00:22:14.666                             : Chapter06
  96. 00:29:27.807                             : Chapter07
  97. 00:34:42.288                             : Chapter08
  98. 00:41:33.449                             : Chapter09
  99. 00:50:01.581                             : Chapter10
  100. 00:53:11.229                             : Chapter11
  101. 00:58:42.977                             : Chapter12
  102. 01:03:04.947                             : Chapter13
  103. 01:08:31.440                             : Chapter14
  104. 01:13:56.932                             : Chapter15
  105. 01:18:10.352                             : Chapter16
  106. 01:22:44.918                             : Chapter17
  107. 01:28:07.615                             : Chapter18
  108. 01:33:26.642                             : Chapter19
  109. 01:36:39.627                             : Chapter20






此处一般会放置磁力链或种子下载链接,不过此链接需要注册会员才能看到,点击“立即注册”
磁力链下载【下载链接仅对注册会员开放,登陆后可见】

BT9527电影天堂 1、BT9527电影天堂提供的BT文件均来源于互联网抓取,只供网友学习交流、技术提升使用。
2、我们遵守BitTorrent点对点协议原则,任何版权问题请联系原资源发布商,我们不处理任何版权纠纷,谢谢!如有争议请联系邮箱:BT9527#hotmail.com(#换成@)
3、如果您发现某页面或地址有错误,请联系站长邮箱BT9527#hotmail.com(#换成@),我们会尽快处理。您的热心是对BT9527电影天堂最大的支持。
4、本站建议去正规影院观看电影以支持电影行业发展。
最新回复 (0)

你可以在 登录 or 注册 后,对此帖发表评论!

返回