黄飞鸿之王者无敌[国语音轨].The.King.is.Invincible.2019.CHINESE.1080p.AMZN.WEBRip.DDP5.1.x264-CBON 4.90GB

版主小s 3月前 194

✔资源类型:WEB-1080P   ✔电影年份:2019   ✔电影地区:大陆   ✔电影分类:喜剧

RARBG.jpg (40.13 KB, 下载次数: 0)

下载附件

1 小时前 上传


Douban.jpg (84.54 KB, 下载次数: 0)

下载附件

1 小时前 上传



◎译  名 黄飞鸿之王者无敌 / 黄飞鸿决战加拿大
◎年  代 2019
◎产  地 中国大陆
◎类  别 喜剧 / 动作 / 冒险
◎语  言 汉语普通话
◎上映日期 2019-03-16(中国大陆)
◎IMDb链接 https://www.imdb.com/title/tt12724988/
◎豆瓣链接 https://movie.douban.com/subject/34454652/
◎片  长 90分钟
◎导  演 黑子 Kaiyi Liu (id:1434238)
◎演  员 薛江涛 Jiangtao Xue (id:1353993)
       杨乾龙 Qianlong Yang (id:1403619)
       郑文森 Jason Zheng (id:1376536)
       马瑶瑶 Yaoyao Ma (id:1446542)
       史洪波 Hung-Bor Sze (id:1390996)

◎简  介
  清朝末期,清政府由于闭关锁国导致经济衰退。黄飞鸿因民族大义、家国情怀而错过与十三姨的婚事,导致十三姨心灰意冷出走上海。黄飞鸿为了寻回十三姨加上找回丢失的墨龙图也随后前往上海。十三姨来到上海投奔了自己的外国同学皮特,多年来皮特一直对十三姨心存爱意,对十三姨的到来十分的开心。但十三姨心中还是惦记着黄飞鸿。而在寻找墨龙图的过程中,黄飞鸿陷入黑帮纷争,遭人陷害不幸入狱...
  1. Video
  2. ID                                       : 1
  3. Format                                   : AVC
  4. Format/Info                              : Advanced Video Codec
  5. Format profile                           : High@L4
  6. Format settings                          : CABAC / 4 Ref Frames
  7. Format settings, CABAC                   : Yes
  8. Format settings, Reference frames        : 4 frames
  9. Codec ID                                 : V_MPEG4/ISO/AVC
  10. Duration                                 : 1 h 30 min
  11. Bit rate mode                            : Constant
  12. Bit rate                                 : 7 102 kb/s
  13. Nominal bit rate                         : 10 000 kb/s
  14. Width                                    : 1 920 pixels
  15. Height                                   : 800 pixels
  16. Display aspect ratio                     : 2.40:1
  17. Frame rate mode                          : Constant
  18. Frame rate                               : 25.000 FPS
  19. Color space                              : YUV
  20. Chroma subsampling                       : 4:2:0
  21. Bit depth                                : 8 bits
  22. Scan type                                : Progressive
  23. Bits/(Pixel*Frame)                       : 0.185
  24. Stream size                              : 4.49 GiB (92%)
  25. Language                                 : Chinese
  26. Default                                  : Yes
  27. Forced                                   : No
  28. Color range                              : Limited
  29. Color primaries                          : BT.709
  30. Transfer characteristics                 : BT.709
  31. Matrix coefficients                      : BT.709

  32. Audio
  33. ID                                       : 2
  34. Format                                   : E-AC-3
  35. Format/Info                              : Enhanced AC-3
  36. Commercial name                          : Dolby Digital Plus
  37. Codec ID                                 : A_EAC3
  38. Duration                                 : 1 h 30 min
  39. Bit rate mode                            : Constant
  40. Bit rate                                 : 640 kb/s
  41. Channel(s)                               : 6 channels
  42. Channel layout                           : L R C LFE Ls Rs
  43. Sampling rate                            : 48.0 kHz
  44. Frame rate                               : 31.250 FPS (1536 SPF)
  45. Compression mode                         : Lossy
  46. Stream size                              : 414 MiB (8%)
  47. Language                                 : Chinese
  48. Service kind                             : Complete Main
  49. Default                                  : Yes
  50. Forced                                   : No

  51. Text
  52. ID                                       : 3
  53. Format                                   : UTF-8
  54. Codec ID                                 : S_TEXT/UTF8
  55. Codec ID/Info                            : UTF-8 Plain Text
  56. Duration                                 : 1 h 27 min
  57. Bit rate                                 : 34 b/s
  58. Count of elements                        : 976
  59. Stream size                              : 22.0 KiB (0%)
  60. Language                                 : English
  61. Default                                  : No
  62. Forced                                   : No


1.jpg (16.75 KB, 下载次数: 0)

下载附件

1 小时前 上传

2.jpg (19.68 KB, 下载次数: 0)

下载附件

1 小时前 上传

3.jpg (31.47 KB, 下载次数: 0)

下载附件

1 小时前 上传




此处一般会放置磁力链或种子下载链接,不过此链接需要注册会员才能看到,点击“立即注册”
磁力链下载【下载链接仅对注册会员开放,登陆后可见】
BT9527电影天堂 1、BT9527电影天堂提供的BT文件均来源于互联网抓取,只供网友学习交流、技术提升使用。
2、我们遵守BitTorrent点对点协议原则,任何版权问题请联系原资源发布商,我们不处理任何版权纠纷,谢谢!如有争议请联系邮箱:BT9527#hotmail.com(#换成@)
3、如果您发现某页面或地址有错误,请联系站长邮箱BT9527#hotmail.com(#换成@),我们会尽快处理。您的热心是对BT9527电影天堂最大的支持。
4、本站建议去正规影院观看电影以支持电影行业发展。
最新回复 (0)

你可以在 登录 or 注册 后,对此帖发表评论!

返回
发新帖