铁线虫入侵[国韩多音轨/简繁英字幕].Deranged.2012.BluRay.1080p.x265.10bit.DDP5.1-MiniHD 8.38GB

版主小s 3月前 259

✔资源类型:暂未分类   ✔电影年份:2012   ✔电影地区:韩国   ✔电影分类:剧情

◎译  名 铁线虫入侵 / 寄生虫 / 铁线虫 / Deranged / Gordioida
◎片  名 ???
◎年  代 2012
◎产  地 韩国
◎类  别 剧情 / 惊悚 / 灾难
◎语  言 韩语
◎上映日期 2012-12-06(中国大陆) / 2012-06-28(韩国)
◎IMDb链接 https://www.imdb.com/title/tt2173024/
◎豆瓣评分 6.8/10 (74920人评价)
◎豆瓣链接 https://movie.douban.com/subject/6839145/
◎片  长 109分钟
◎导  演 朴正祐 Jeong-woo Park         (id:1324714)
◎编  剧 朴正祐 Jeong-woo Park         (id:1324714)
◎演  员 金明民 Myeong-min Kim (id:1275746)
       金烔完 Dong-wan Kim (id:1043642)
       文晶熙 Jung-Hee Moon (id:1175765)
       李荷妮 Ha-nui Lee (id:1324715)
       闵庆珍 Kyoung-jin Min (id:1373552)
       赵汉哲 Han-chul Jo (id:1386180)
       申菲 Bi Shin (id:1438058)
       李恩彩 Eun-Chae Lee (id:1456756)
       郭仁俊 In-jun Gwak (id:1381299)
       赵德贤 Deok-hyeon Jo (id:1374620)
       周锡泰 Suk-tae Joo (id:1375770)
       严智星 Ji-seong Eom (id:1351949)
       郑仁基 In-gi Jeong (id:1320459)
       李勇直 Yong-jik Lee (id:1458117)
       曹永旭 Yeong-wook Jo (id:1287735)
       朴曲之 Gok-ji Park (id:1293957)

◎简  介
  制药公司小职员医学博士出身的宰赫(金明民 饰)早些年被弟弟宰弼(金烔完 饰)劝诱炒股,结果赔得精光,如今委身于一家毫无前景的制药公司做推销员,在外低声下气,看客户脸色行事,心中的郁结只有向家中妻儿宣泄。与此同时,汉江流域附近接连发现数十具尸体,死者全身皆如干尸,死状恐怖。这一事件波及甚广,连宰赫身边的人也无法幸免。经调查发现,死者体内无一例外寄居着本应存在于昆虫身上的铁线虫,铁线虫会刺激宿主食欲大增以吸收养分,等到繁殖期时令宿主神志不清,投水自杀,再进入水中大量繁殖。面对这一新型变种,人类束手无策,无计可施,死亡人数呈几何数增加,韩国上下乱作一团,有如末日。                                    
                                原本为生计奔忙已焦头烂额的宰赫,该如何保护家人幸免于难……

◎获奖情况 (共4项)
  第49届百想艺术大赏 (2013)
  电影类 最佳女配角(提名)
   └──文晶熙 (id:1175765)
  电影类 最佳人气男演员
   └──金烔完 (id:1043642)
  电影类 最佳人气女演员(提名)

  第49届韩国电影大钟奖 (2012)
  最佳女配角(提名)
   └──文晶熙 (id:1175765)

  1. ##### MediaInfo ######
  2. General
  3. Unique ID                                : 232105605850876584121677139923037331715 (0xAE9DE9E56A0FB2765CCC3D0A97242103)
  4. Complete name                            : Deranged.2012.BluRay.1080p.x265.10bit.DDP5.1-MiniHD.mkv
  5. Format                                   : Matroska
  6. Format version                           : Version 4
  7. File size                                : 8.38 GiB
  8. Duration                                 : 1 h 49 min
  9. Overall bit rate                         : 11.0 Mb/s
  10. Movie name                               : Deranged.2012.BluRay.1080p.x265.10bit.DDP5.1.MNHD-FRDS
  11. Encoded date                             : UTC 2022-06-15 02:22:52
  12. Writing application                      : mkvmerge v68.0.0 ('The Curtain') 64-bit
  13. Writing library                          : libebml v1.4.2 + libmatroska v1.6.4
  14. Video
  15. ID                                       : 1
  16. Format                                   : HEVC
  17. Format/Info                              : High Efficiency Video Coding
  18. Format profile                           : Main 10@L5.1@High
  19. Codec ID                                 : V_MPEGH/ISO/HEVC
  20. Duration                                 : 1 h 49 min
  21. Bit rate                                 : 9 778 kb/s
  22. Width                                    : 1 920 pixels
  23. Height                                   : 816 pixels
  24. Display aspect ratio                     : 2.35:1
  25. Frame rate mode                          : Constant
  26. Frame rate                               : 23.976 (24000/1001/53354) FPS
  27. Color space                              : YUV
  28. Chroma subsampling                       : 4:2:0
  29. Bit depth                                : 10 bits
  30. Bits/(Pixel*Frame)                       : 0.260
  31. Stream size                              : 7.46 GiB (89%)
  32. Writing library                          : x265 3.5+36-9b59d4554:[Windows][MSVC 1931][64 bit] 10bit
  33. Encoding settings                        : cpuid=533541111039 / frame-threads=4 / numa-pools=16 / wpp / pmode / no-pme / no-psnr / no-ssim / log-level=2 / input-csp=1 / input-res=1920x816 / interlace=0 / total-frames=157206 / level-idc=51 / high-tier=1 / uhd-bd=0 / ref=5 / no-allow-non-conformance / no-repeat-headers / annexb / no-aud / no-eob / no-eos / no-hrd / info / hash=0 / no-temporal-layers / no-open-gop / min-keyint=1 / keyint=250 / gop-lookahead=0 / bframes=8 / b-adapt=2 / b-pyramid / bframe-bias=0 / rc-lookahead=100 / lookahead-slices=0 / NTMzNTQ=uuDQuD2mJt9fsCf / scenecut=40 / no-hist-scenecut / radl=0 / no-splice / no-intra-refresh / ctu=32 / min-cu-size=8 / no-rect / no-amp / max-tu-size=32 / tu-inter-depth=4 / tu-intra-depth=4 / limit-tu=0 / rdoq-level=2 / dynamic-rd=0.00 / no-ssim-rd / signhide / tskip / nr-intra=0 / nr-inter=0 / no-constrained-intra / no-strong-intra-smoothing / max-merge=5 / limit-refs=0 / no-limit-modes / me=3 / subme=7 / merange=57 / temporal-mvp / no-frame-dup / no-hme / weightp / weightb / no-analyze-src-pics / deblock=-3:-3 / no-sao / no-sao-non-deblock / rd=4 / selective-sao=0 / no-early-skip / no-rskip / no-fast-intra / no-tskip-fast / no-cu-lossless / b-intra / no-splitrd-skip / rdpenalty=0 / psy-rd=1.50 / psy-rdoq=1.00 / no-rd-refine / no-lossless / cbqpoffs=-2 / crqpoffs=-2 / rc=crf / crf=18.0 / qcomp=0.65 / qpstep=4 / stats-write=0 / stats-read=0 / vbv-maxrate=160000 / vbv-bufsize=160000 / vbv-init=0.9 / min-vbv-fullness=50.0 / max-vbv-fullness=80.0 / crf-max=0.0 / crf-min=0.0 / ipratio=1.30 / pbratio=1.20 / aq-mode=1 / aq-strength=1.00 / no-cutree / zone-count=0 / no-strict-cbr / qg-size=8 / no-rc-grain / qpmax=69 / qpmin=0 / no-const-vbv / sar=0 / overscan=0 / videoformat=5 / range=0 / colorprim=1 / transfer=1 / colormatrix=1 / chromaloc=0 / display-window=0 / cll=0,0 / min-luma=0 / max-luma=1023 / log2-max-poc-lsb=8 / vui-timing-info / vui-hrd-info / slices=1 / no-opt-qp-pps / no-opt-ref-list-length-pps / no-multi-pass-opt-rps / scenecut-bias=0.05 / hist-threshold=0.03 / no-opt-cu-delta-qp / no-aq-motion / no-hdr10 / no-hdr10-opt / no-dhdr10-opt / no-idr-recovery-sei / analysis-reuse-level=0 / analysis-save-reuse-level=0 / analysis-load-reuse-level=0 / scale-factor=0 / refine-intra=0 / refine-inter=0 / refine-mv=1 / refine-ctu-distortion=0 / no-limit-sao / ctu-info=0 / no-lowpass-dct / refine-analysis-type=0 / copy-pic=1 / max-ausize-factor=1.0 / no-dynamic-refine / no-single-sei / no-hevc-aq / no-svt / no-field / qp-adaptation-range=1.00 / scenecut-aware-qp=0conformance-window-offsets / right=0 / bottom=0 / NTMzNTQ= / decoder-max-rate=0 / no-vbv-live-multi-pass
  34. Default                                  : Yes
  35. Forced                                   : No
  36. Color range                              : Limited
  37. Color primaries                          : BT.709
  38. Transfer characteristics                 : BT.709
  39. Matrix coefficients                      : BT.709
  40. Audio #1
  41. ID                                       : 2
  42. Format                                   : E-AC-3
  43. Format/Info                              : Enhanced AC-3
  44. Commercial name                          : Dolby Digital Plus
  45. Codec ID                                 : A_EAC3
  46. Duration                                 : 1 h 49 min
  47. Bit rate mode                            : Constant
  48. Bit rate                                 : 1 024 kb/s
  49. Channel(s)                               : 6 channels
  50. Channel layout                           : L R C LFE Ls Rs
  51. Sampling rate                            : 48.0 kHz
  52. Frame rate                               : 31.250 FPS (1536 SPF)
  53. Compression mode                         : Lossy
  54. Stream size                              : 800 MiB (9%)
  55. Language                                 : Korean
  56. Service kind                             : Complete Main
  57. Default                                  : Yes
  58. Forced                                   : No
  59. Audio #2
  60. ID                                       : 3
  61. Format                                   : Opus
  62. Codec ID                                 : A_OPUS
  63. Duration                                 : 1 h 49 min
  64. Bit rate                                 : 50.3 kb/s
  65. Channel(s)                               : 2 channels
  66. Channel layout                           : L R
  67. Sampling rate                            : 48.0 kHz
  68. Frame rate                               : 50.000 FPS (960 SPF)
  69. Compression mode                         : Lossy
  70. Delay relative to video                  : 24 ms
  71. Stream size                              : 39.3 MiB (0%)
  72. Title                                    : 长影公映国语
  73. Writing library                          : opusenc from opus-tools 0.2-3-gf5f571b
  74. Language                                 : Chinese
  75. Default                                  : No
  76. Forced                                   : No
  77. ENCODER_OPTIONS                          : --bitrate 64
  78. Audio #3
  79. ID                                       : 4
  80. Format                                   : Opus
  81. Codec ID                                 : A_OPUS
  82. Duration                                 : 1 h 49 min
  83. Bit rate                                 : 55.2 kb/s
  84. Channel(s)                               : 2 channels
  85. Channel layout                           : L R
  86. Sampling rate                            : 48.0 kHz
  87. Frame rate                               : 50.000 FPS (960 SPF)
  88. Compression mode                         : Lossy
  89. Delay relative to video                  : 24 ms
  90. Stream size                              : 43.2 MiB (1%)
  91. Title                                    : 东森台配国语
  92. Writing library                          : opusenc from opus-tools 0.2-3-gf5f571b
  93. Language                                 : Chinese
  94. Default                                  : No
  95. Forced                                   : No
  96. ENCODER_OPTIONS                          : --bitrate 64
  97. Text #1
  98. ID                                       : 5
  99. Format                                   : PGS
  100. Muxing mode                              : zlib
  101. Codec ID                                 : S_HDMV/PGS
  102. Codec ID/Info                            : Picture based subtitle format used on BDs/HD-DVDs
  103. Duration                                 : 1 h 43 min
  104. Bit rate                                 : 26.7 kb/s
  105. Count of elements                        : 2671
  106. Stream size                              : 19.8 MiB (0%)
  107. Title                                    : CHS
  108. Language                                 : Chinese
  109. Default                                  : Yes
  110. Forced                                   : No
  111. Text #2
  112. ID                                       : 6
  113. Format                                   : PGS
  114. Muxing mode                              : zlib
  115. Codec ID                                 : S_HDMV/PGS
  116. Codec ID/Info                            : Picture based subtitle format used on BDs/HD-DVDs
  117. Duration                                 : 1 h 43 min
  118. Bit rate                                 : 28.9 kb/s
  119. Count of elements                        : 2671
  120. Stream size                              : 21.4 MiB (0%)
  121. Title                                    : CHT
  122. Language                                 : Chinese
  123. Default                                  : No
  124. Forced                                   : No
  125. Text #3
  126. ID                                       : 7
  127. Format                                   : PGS
  128. Muxing mode                              : zlib
  129. Codec ID                                 : S_HDMV/PGS
  130. Codec ID/Info                            : Picture based subtitle format used on BDs/HD-DVDs
  131. Duration                                 : 1 h 43 min
  132. Bit rate                                 : 37.8 kb/s
  133. Count of elements                        : 2247
  134. Stream size                              : 27.9 MiB (0%)
  135. Language                                 : Korean
  136. Default                                  : No
  137. Forced                                   : No
  138. Text #4
  139. ID                                       : 8
  140. Format                                   : PGS
  141. Muxing mode                              : zlib
  142. Codec ID                                 : S_HDMV/PGS
  143. Codec ID/Info                            : Picture based subtitle format used on BDs/HD-DVDs
  144. Duration                                 : 1 h 44 min
  145. Bit rate                                 : 42.8 kb/s
  146. Count of elements                        : 2239
  147. Stream size                              : 31.9 MiB (0%)
  148. Language                                 : English
  149. Default                                  : No
  150. Forced                                   : No
  151. Menu
  152. 00:00:00.000                             : en:Chapter 01
  153. 00:13:46.659                             : en:Chapter 02
  154. 00:24:11.324                             : en:Chapter 03
  155. 00:29:22.719                             : en:Chapter 04
  156. 00:38:10.955                             : en:Chapter 05
  157. 00:49:18.872                             : en:Chapter 06
  158. 00:58:12.113                             : en:Chapter 07
  159. 01:08:10.711                             : en:Chapter 08
  160. 01:15:04.457                             : en:Chapter 09
  161. 01:23:25.709                             : en:Chapter 10
  162. 01:29:45.921                             : en:Chapter 11
  163. 01:45:15.142                             : en:Chapter 12
  164. 01:49:02.369                             : en:Chapter 13





此处一般会放置磁力链或种子下载链接,不过此链接需要注册会员才能看到,点击“立即注册”
磁力链下载【下载链接仅对注册会员开放,登陆后可见】
BT9527电影天堂 1、BT9527电影天堂提供的BT文件均来源于互联网抓取,只供网友学习交流、技术提升使用。
2、我们遵守BitTorrent点对点协议原则,任何版权问题请联系原资源发布商,我们不处理任何版权纠纷,谢谢!如有争议请联系邮箱:BT9527#hotmail.com(#换成@)
3、如果您发现某页面或地址有错误,请联系站长邮箱BT9527#hotmail.com(#换成@),我们会尽快处理。您的热心是对BT9527电影天堂最大的支持。
4、本站建议去正规影院观看电影以支持电影行业发展。
最新回复 (0)

你可以在 登录 or 注册 后,对此帖发表评论!

返回
发新帖