灰姑娘[中文字幕].Cinderella.2021.1080p.BluRay.REMUX.AVC.DTS-HD.MA.5.1-FGT 28.18GB

版主小s 13天前 61

◎译  名 灰姑娘
◎片  名 Cinderella
◎年  代 2021
◎产  地 英国 / 美国
◎类  别 喜剧 / 爱情 / 歌舞 / 奇幻
◎语  言 英语
◎上映日期 2021-09-03(美国网络)
◎IMDb链接 https://www.imdb.com/title/tt10155932/
◎豆瓣评分 5.4/10 (3941人评价)
◎豆瓣链接 https://movie.douban.com/subject/33404941/
◎片  长 113分钟
◎导  演 凯·加农 Kay Cannon (id:1324071)
◎编  剧 凯·加农 Kay Cannon (id:1324071)
       詹姆斯·柯登 James Corden (id:1017966)
◎演  员 卡米拉·卡贝欧 Camila Cabello (id:1411733)
       尼古拉斯·加利齐纳 Nicholas Galitzine (id:1365256)
       伊迪娜·门泽尔 Idina Menzel (id:1116746)
       皮尔斯·布鲁斯南 Pierce Brosnan (id:1031219)
       明妮·德里弗 Minnie Driver (id:1004602)
       比利·波特 Billy Porter (id:1050593)
       麦迪·贝里欧 Maddie Baillio (id:1406688)
       夏洛特·斯宾塞 Charlotte Spencer (id:1343846)
       詹姆斯·柯登 James Corden (id:1017966)
       Tallulah Greive Tallulah Greive (id:1450691)
       James Acaster James Acaster (id:1388648)
       罗梅什·兰加纳坦 Romesh Ranganathan (id:1353444)
       Rob Beckett Rob Beckett (id:1388501)
       本·贝利·史密斯 Ben Bailey Smith (id:1444755)
       弗拉·菲 Fra Fee (id:1429389)
       Beverley Knight Beverley Knight (id:1174350)
       Natasha Patel Natasha Patel (id:1450701)
       妮基塔·查达哈 Nikkita Chadha (id:1449234)
       约翰·艾伦·罗伯茨 John Alan Roberts (id:1442711)
        Danny Salomon (id:1244290)
       艾伦·米罗伊尼克 Ellen Mirojnick (id:1010099)

◎简  介
  根据消息指出,卡妹版本的《灰姑娘》是一部具有现代性和女权主义的新式公主电影,据说加入了Me Too运动的隐喻内容,表达女性的自主和自我,也同时将充满性别平等的意义。

  1. Video
  2. ID                                       : 1
  3. ID in the original source medium         : 4113 (0x1011)
  4. Format                                   : AVC
  5. Format/Info                              : Advanced Video Codec
  6. Format profile                           : High@L4.1
  7. Format settings                          : CABAC / 2 Ref Frames
  8. Format settings, CABAC                   : Yes
  9. Format settings, Reference frames        : 2 frames
  10. Format settings, GOP                     : M=1, N=10
  11. Codec ID                                 : V_MPEG4/ISO/AVC
  12. Duration                                 : 1 h 52 min
  13. Bit rate mode                            : Variable
  14. Bit rate                                 : 27.8 Mb/s
  15. Width                                    : 1 920 pixels
  16. Height                                   : 1 080 pixels
  17. Display aspect ratio                     : 16:9
  18. Frame rate mode                          : Constant
  19. Frame rate                               : 23.976 (24000/1001/53354) FPS
  20. Color space                              : YUV
  21. Chroma subsampling                       : 4:2:0
  22. Bit depth                                : 8 bits
  23. Scan type                                : Progressive
  24. Bits/(Pixel*Frame)                       : 0.560
  25. Stream size                              : 21.9 GiB (78%)
  26. Language                                 : English
  27. Default                                  : No
  28. Forced                                   : No
  29. Original source medium                   : Blu-ray

  30. Audio #1
  31. ID                                       : 2
  32. ID in the original source medium         : 4352 (0x1100)
  33. Format                                   : DTS XLL
  34. Format/Info                              : Digital Theater Systems
  35. Commercial name                          : DTS-HD Master Audio
  36. Codec ID                                 : A_DTS
  37. Duration                                 : 1 h 52 min
  38. Bit rate mode                            : Variable
  39. Bit rate                                 : 2 243 kb/s
  40. Channel(s)                               : 6 channels
  41. Channel layout                           : C L R Ls Rs LFE
  42. Sampling rate                            : 48.0 kHz
  43. Frame rate                               : 93.750 FPS (512 SPF)
  44. Bit depth                                : 16 bits
  45. Compression mode                         : Lossless
  46. Stream size                              : 1.76 GiB (6%)
  47. Title                                    : DTS-HD MA 5.1
  48. Language                                 : English
  49. Default                                  : Yes
  50. Forced                                   : No
  51. Original source medium                   : Blu-ray

  52. Audio #2
  53. ID                                       : 3
  54. ID in the original source medium         : 4353 (0x1101)
  55. Format                                   : AC-3
  56. Format/Info                              : Audio Coding 3
  57. Commercial name                          : Dolby Digital
  58. Codec ID                                 : A_AC3
  59. Duration                                 : 1 h 52 min
  60. Bit rate mode                            : Constant
  61. Bit rate                                 : 384 kb/s
  62. Channel(s)                               : 6 channels
  63. Channel layout                           : L R C LFE Ls Rs
  64. Sampling rate                            : 48.0 kHz
  65. Frame rate                               : 31.250 FPS (1536 SPF)
  66. Compression mode                         : Lossy
  67. Stream size                              : 309 MiB (1%)
  68. Title                                    : DD 5.1
  69. Language                                 : English
  70. Service kind                             : Complete Main
  71. Default                                  : No
  72. Forced                                   : No
  73. Original source medium                   : Blu-ray

  74. Audio #3
  75. ID                                       : 4
  76. ID in the original source medium         : 4354 (0x1102)
  77. Format                                   : DTS XLL
  78. Format/Info                              : Digital Theater Systems
  79. Commercial name                          : DTS-HD Master Audio
  80. Codec ID                                 : A_DTS
  81. Duration                                 : 1 h 52 min
  82. Bit rate mode                            : Variable
  83. Bit rate                                 : 2 244 kb/s
  84. Channel(s)                               : 6 channels
  85. Channel layout                           : C L R Ls Rs LFE
  86. Sampling rate                            : 48.0 kHz
  87. Frame rate                               : 93.750 FPS (512 SPF)
  88. Bit depth                                : 16 bits
  89. Compression mode                         : Lossless
  90. Stream size                              : 1.77 GiB (6%)
  91. Title                                    : DTS-HD MA 5.1
  92. Language                                 : French
  93. Default                                  : No
  94. Forced                                   : No
  95. Original source medium                   : Blu-ray

  96. Audio #4
  97. ID                                       : 5
  98. ID in the original source medium         : 4355 (0x1103)
  99. Format                                   : DTS XLL
  100. Format/Info                              : Digital Theater Systems
  101. Commercial name                          : DTS-HD Master Audio
  102. Codec ID                                 : A_DTS
  103. Duration                                 : 1 h 52 min
  104. Bit rate mode                            : Variable
  105. Bit rate                                 : 2 253 kb/s
  106. Channel(s)                               : 6 channels
  107. Channel layout                           : C L R Ls Rs LFE
  108. Sampling rate                            : 48.0 kHz
  109. Frame rate                               : 93.750 FPS (512 SPF)
  110. Bit depth                                : 16 bits
  111. Compression mode                         : Lossless
  112. Stream size                              : 1.77 GiB (6%)
  113. Title                                    : DTS-HD MA 5.1
  114. Language                                 : Portuguese
  115. Default                                  : No
  116. Forced                                   : No
  117. Original source medium                   : Blu-ray

  118. Audio #5
  119. ID                                       : 6
  120. ID in the original source medium         : 4356 (0x1104)
  121. Format                                   : AC-3
  122. Format/Info                              : Audio Coding 3
  123. Commercial name                          : Dolby Digital
  124. Codec ID                                 : A_AC3
  125. Duration                                 : 1 h 52 min
  126. Bit rate mode                            : Constant
  127. Bit rate                                 : 640 kb/s
  128. Channel(s)                               : 6 channels
  129. Channel layout                           : L R C LFE Ls Rs
  130. Sampling rate                            : 48.0 kHz
  131. Frame rate                               : 31.250 FPS (1536 SPF)
  132. Compression mode                         : Lossy
  133. Stream size                              : 516 MiB (2%)
  134. Title                                    : DD 5.1
  135. Language                                 : Spanish
  136. Service kind                             : Complete Main
  137. Default                                  : No
  138. Forced                                   : No
  139. Original source medium                   : Blu-ray

  140. Text #1
  141. ID                                       : 7
  142. Format                                   : UTF-8
  143. Codec ID                                 : S_TEXT/UTF8
  144. Codec ID/Info                            : UTF-8 Plain Text
  145. Duration                                 : 1 h 51 min
  146. Bit rate                                 : 76 b/s
  147. Count of elements                        : 1878
  148. Stream size                              : 62.9 KiB (0%)
  149. Language                                 : English
  150. Default                                  : Yes
  151. Forced                                   : No

  152. Text #2
  153. ID                                       : 8
  154. Format                                   : UTF-8
  155. Codec ID                                 : S_TEXT/UTF8
  156. Codec ID/Info                            : UTF-8 Plain Text
  157. Duration                                 : 1 h 51 min
  158. Bit rate                                 : 80 b/s
  159. Count of elements                        : 2004
  160. Stream size                              : 66.3 KiB (0%)
  161. Title                                    : SDH
  162. Language                                 : English
  163. Default                                  : No
  164. Forced                                   : No

  165. Text #3
  166. ID                                       : 9
  167. ID in the original source medium         : 4608 (0x1200)
  168. Format                                   : PGS
  169. Muxing mode                              : zlib
  170. Codec ID                                 : S_HDMV/PGS
  171. Codec ID/Info                            : Picture based subtitle format used on BDs/HD-DVDs
  172. Duration                                 : 1 h 51 min
  173. Bit rate                                 : 46.5 kb/s
  174. Count of elements                        : 4065
  175. Stream size                              : 37.3 MiB (0%)
  176. Language                                 : English
  177. Default                                  : No
  178. Forced                                   : No
  179. Original source medium                   : Blu-ray

  180. Text #4
  181. ID                                       : 10
  182. ID in the original source medium         : 4609 (0x1201)
  183. Format                                   : PGS
  184. Muxing mode                              : zlib
  185. Codec ID                                 : S_HDMV/PGS
  186. Codec ID/Info                            : Picture based subtitle format used on BDs/HD-DVDs
  187. Duration                                 : 1 h 51 min
  188. Bit rate                                 : 40.3 kb/s
  189. Count of elements                        : 3632
  190. Stream size                              : 32.3 MiB (0%)
  191. Language                                 : English
  192. Default                                  : No
  193. Forced                                   : No
  194. Original source medium                   : Blu-ray

  195. Text #5
  196. ID                                       : 11
  197. ID in the original source medium         : 4610 (0x1202)
  198. Format                                   : PGS
  199. Muxing mode                              : zlib
  200. Codec ID                                 : S_HDMV/PGS
  201. Codec ID/Info                            : Picture based subtitle format used on BDs/HD-DVDs
  202. Duration                                 : 1 h 51 min
  203. Bit rate                                 : 33.3 kb/s
  204. Count of elements                        : 3636
  205. Stream size                              : 26.7 MiB (0%)
  206. Language                                 : Chinese
  207. Default                                  : No
  208. Forced                                   : No
  209. Original source medium                   : Blu-ray

  210. Text #6
  211. ID                                       : 12
  212. ID in the original source medium         : 4611 (0x1203)
  213. Format                                   : PGS
  214. Muxing mode                              : zlib
  215. Codec ID                                 : S_HDMV/PGS
  216. Codec ID/Info                            : Picture based subtitle format used on BDs/HD-DVDs
  217. Duration                                 : 1 h 51 min
  218. Bit rate                                 : 35.0 kb/s
  219. Count of elements                        : 3620
  220. Stream size                              : 28.0 MiB (0%)
  221. Language                                 : Chinese
  222. Default                                  : No
  223. Forced                                   : No
  224. Original source medium                   : Blu-ray

  225. Text #7
  226. ID                                       : 13
  227. ID in the original source medium         : 4612 (0x1204)
  228. Format                                   : PGS
  229. Muxing mode                              : zlib
  230. Codec ID                                 : S_HDMV/PGS
  231. Codec ID/Info                            : Picture based subtitle format used on BDs/HD-DVDs
  232. Duration                                 : 1 h 51 min
  233. Bit rate                                 : 39.0 kb/s
  234. Count of elements                        : 3560
  235. Stream size                              : 31.2 MiB (0%)
  236. Language                                 : French
  237. Default                                  : No
  238. Forced                                   : No
  239. Original source medium                   : Blu-ray

  240. Text #8
  241. ID                                       : 14
  242. ID in the original source medium         : 4612 (0x1204)
  243. Format                                   : PGS
  244. Muxing mode                              : zlib
  245. Codec ID                                 : S_HDMV/PGS
  246. Codec ID/Info                            : Picture based subtitle format used on BDs/HD-DVDs
  247. Duration                                 : 1 h 51 min
  248. Bit rate                                 : 13.8 kb/s
  249. Count of elements                        : 1350
  250. Stream size                              : 11.0 MiB (0%)
  251. Language                                 : French
  252. Default                                  : No
  253. Forced                                   : No
  254. Original source medium                   : Blu-ray

  255. Text #9
  256. ID                                       : 15
  257. ID in the original source medium         : 4613 (0x1205)
  258. Format                                   : PGS
  259. Muxing mode                              : zlib
  260. Codec ID                                 : S_HDMV/PGS
  261. Codec ID/Info                            : Picture based subtitle format used on BDs/HD-DVDs
  262. Duration                                 : 1 h 51 min
  263. Bit rate                                 : 32.8 kb/s
  264. Count of elements                        : 3640
  265. Stream size                              : 26.3 MiB (0%)
  266. Language                                 : Korean
  267. Default                                  : No
  268. Forced                                   : No
  269. Original source medium                   : Blu-ray

  270. Text #10
  271. ID                                       : 16
  272. ID in the original source medium         : 4614 (0x1206)
  273. Format                                   : PGS
  274. Muxing mode                              : zlib
  275. Codec ID                                 : S_HDMV/PGS
  276. Codec ID/Info                            : Picture based subtitle format used on BDs/HD-DVDs
  277. Duration                                 : 1 h 51 min
  278. Bit rate                                 : 39.9 kb/s
  279. Count of elements                        : 3640
  280. Stream size                              : 31.9 MiB (0%)
  281. Language                                 : Portuguese
  282. Default                                  : No
  283. Forced                                   : No
  284. Original source medium                   : Blu-ray

  285. Text #11
  286. ID                                       : 17
  287. ID in the original source medium         : 4614 (0x1206)
  288. Format                                   : PGS
  289. Muxing mode                              : zlib
  290. Codec ID                                 : S_HDMV/PGS
  291. Codec ID/Info                            : Picture based subtitle format used on BDs/HD-DVDs
  292. Duration                                 : 1 h 51 min
  293. Bit rate                                 : 14.8 kb/s
  294. Count of elements                        : 1414
  295. Stream size                              : 11.7 MiB (0%)
  296. Language                                 : Portuguese
  297. Default                                  : No
  298. Forced                                   : No
  299. Original source medium                   : Blu-ray

  300. Text #12
  301. ID                                       : 18
  302. ID in the original source medium         : 4615 (0x1207)
  303. Format                                   : PGS
  304. Muxing mode                              : zlib
  305. Codec ID                                 : S_HDMV/PGS
  306. Codec ID/Info                            : Picture based subtitle format used on BDs/HD-DVDs
  307. Duration                                 : 1 h 51 min
  308. Bit rate                                 : 38.6 kb/s
  309. Count of elements                        : 3638
  310. Stream size                              : 30.9 MiB (0%)
  311. Language                                 : Spanish
  312. Default                                  : No
  313. Forced                                   : No
  314. Original source medium                   : Blu-ray

  315. Text #13
  316. ID                                       : 19
  317. ID in the original source medium         : 4615 (0x1207)
  318. Format                                   : PGS
  319. Muxing mode                              : zlib
  320. Codec ID                                 : S_HDMV/PGS
  321. Codec ID/Info                            : Picture based subtitle format used on BDs/HD-DVDs
  322. Duration                                 : 1 h 50 min
  323. Bit rate                                 : 14.0 kb/s
  324. Count of elements                        : 1408
  325. Stream size                              : 11.1 MiB (0%)
  326. Language                                 : Spanish
  327. Default                                  : No
  328. Forced                                   : No
  329. Original source medium                   : Blu-ray

  330. Text #14
  331. ID                                       : 20
  332. ID in the original source medium         : 4616 (0x1208)
  333. Format                                   : PGS
  334. Muxing mode                              : zlib
  335. Codec ID                                 : S_HDMV/PGS
  336. Codec ID/Info                            : Picture based subtitle format used on BDs/HD-DVDs
  337. Duration                                 : 1 h 51 min
  338. Bit rate                                 : 39.7 kb/s
  339. Count of elements                        : 3638
  340. Stream size                              : 31.8 MiB (0%)
  341. Language                                 : Thai
  342. Default                                  : No
  343. Forced                                   : No
  344. Original source medium                   : Blu-ray

  345. Menu
  346. 00:00:00.000                             : en:Chapter 01
  347. 00:06:16.709                             : en:Chapter 02
  348. 00:12:16.652                             : en:Chapter 03
  349. 00:17:26.253                             : en:Chapter 04
  350. 00:21:36.878                             : en:Chapter 05
  351. 00:27:17.260                             : en:Chapter 06
  352. 00:33:24.544                             : en:Chapter 07
  353. 00:38:40.276                             : en:Chapter 08
  354. 00:44:39.843                             : en:Chapter 09
  355. 00:50:51.339                             : en:Chapter 10
  356. 00:58:42.936                             : en:Chapter 11
  357. 01:07:51.609                             : en:Chapter 12
  358. 01:15:59.471                             : en:Chapter 13
  359. 01:23:11.569                             : en:Chapter 14
  360. 01:29:48.966                             : en:Chapter 15
  361. 01:38:29.403                             : en:Chapter 16
复制代码




上传的附件:
BT9527电影天堂 1、BT9527电影天堂提供的BT文件均来源于互联网抓取,只供网友学习交流、技术提升使用。
2、我们遵守BitTorrent点对点协议原则,任何版权问题请联系原资源发布商,我们不处理任何版权纠纷,谢谢!如有争议请联系邮箱:BT9527#hotmail.com(#换成@)
3、如果您发现某页面或地址有错误,请联系站长邮箱BT9527#hotmail.com(#换成@),我们会尽快处理。您的热心是对BT9527电影天堂最大的支持。
4、本站建议去正规影院观看电影以支持电影行业发展。
最新回复 (0)

你可以在 登录 or 注册 后,对此帖发表评论!

返回
发新帖