燃情岁月[国英多音轨/简英特效字幕].Legends.of.the.Fall.1995.BluRay.1080p.x265.10bit.DDP5.1-MiniHD 12.25GB

版主小s 16天前 116

✔资源类型:暂未分类   ✔电影年份:更 早   ✔电影地区:欧美   ✔电影分类:剧情

◎译  名 燃情岁月 / 秋日传奇 / 真爱一世情(台) / Legends of the Autumn
◎片  名 Legends of the Fall
◎年  代 1994
◎产  地 美国
◎类  别 剧情 / 爱情 / 战争 / 西部
◎语  言 英语 / 科尼什语
◎上映日期 1994-12-16(美国)
◎IMDb链接 https://www.imdb.com/title/tt0110322/
◎豆瓣评分 8.8/10 (265645人评价)
◎豆瓣链接 https://movie.douban.com/subject/1295865/
◎片  长 133分钟
◎导  演 爱德华·兹威克 Edward Zwick (id:1027877)
◎编  剧 威廉·D·威特利夫 William D. Wittliff (id:1301130)
       吉姆·哈里森 Jim Harrison (id:1286127)
       苏珊·希利迪 Susan Shilliday (id:1297463)
◎演  员 布拉德·皮特 Brad Pitt (id:1054452)
       安东尼·霍普金斯 Anthony Hopkins (id:1054434)
       艾丹·奎因 Aidan Quinn (id:1031890)
       朱莉娅·奥蒙德 Julia Ormond (id:1013855)
       亨利·托马斯 Henry Thomas (id:1055549)
       卡琳娜·隆巴德 Karina Lombard (id:1004671)
       坦图·卡丁诺 Tantoo Cardinal (id:1010753)
       高登·图托西斯 Gordon Tootoosis (id:1315452)
       克里斯蒂娜·皮克勒斯 Christina Pickles (id:1127040)
       约翰·诺瓦克 John Novak (id:1126956)
       肯尼斯·威尔什 Kenneth Welsh (id:1000382)
       尼格尔·本内特 Nigel Bennett (id:1041373)
       基根·麦金托什 Keegan MacIntosh (id:1122811)
       埃里克·约翰逊 Eric Johnson (id:1104646)
       兰德尔·斯莱文 Randall Slavin (id:1154026)
       大卫·卡耶 David Kaye (id:1108772)
       查尔斯·安德烈 Charles Andre (id:1277249)
       肯·科齐格 Ken Kirzinger (id:1040687)
       温妮·孔 Winnie Hung (id:1106558)
       巴特熊 Bart the Bear (id:1206098)
       格雷格·福西特 Greg Fawcett (id:1054891)
       加里·A·赫克 Gary A. Hecker (id:1286338)
       马修·罗伯特·凯利 Matthew Robert Kelly (id:1037214)
       道格·休斯 Doug Hughes (id:1444292)
       Sekwan Auger Sekwan Auger (id:1435138)
       爱德华·兹威克 Edward Zwick (id:1027877)
       威廉·D·威特利夫 William D. Wittliff (id:1301130)
       帕特里克·克劳利 Patrick Crowley (id:1382980)
       詹姆斯·霍纳 James Horner (id:1025277)
       约翰·托尔 John Toll (id:1276189)
       斯蒂夫·罗森布朗 Steven Rosenblum (id:1296094)
       Mary Colquhoun Mary Colquhoun (id:1281092)
       多里·库珀 Dorree Cooper (id:1281223)
       莉莉·基尔弗特 Lilly Kilvert (id:1288534)
       德博拉·林恩·斯科特 Deborah Lynn Scott (id:1297071)
       琼·安·布兰克 Jean Ann Black (id:1278717)
       Suzanne Stokes-Munton Suzanne Stokes-Munton (id:1298477)
       克丝缇·碧芙丽绮 Christine Beveridge (id:1278568)
       戈登·J·史密斯 Gordon J. Smith (id:1297881)
       Iloe Flewelling Iloe Flewelling (id:1283862)
       Gail Kennedy Gail Kennedy (id:1288394)
       Andrew Price Andrew Price (id:1294883)
       Alan Munro Alan Munro (id:1292711)

◎简  介
  辽阔的西部草原住着一位父亲和他的三个儿子——父亲是退了休的骑兵上校,三个儿子个性鲜明:大儿子艾尔弗莱德(艾丹?奎因 Aidan Quinn  饰)忠厚老实,二儿子特里斯坦(布拉德?皮特 Brad Pitt 饰)狂放不羁,最小的儿子塞缪尔(亨瑞?托马斯Henry Thomas饰)温文尔雅。                                       
                                    父子在大草原的生活随着塞缪尔未婚妻苏珊娜(朱莉娅?奥蒙德 Julia Ormond  饰)的到来而改变。苏珊娜年轻漂亮,给艾尔弗莱德带来了内心的震动。他暗恋她,然而苏珊娜心里却不由自主的迷恋上豪放粗犷的特里斯坦。出于道德的坚守,他们一直压抑着内心的感情。                                       
                                    直到塞缪尔壮烈牺牲在前线,事情有了变化。特里斯坦非常爱戴哥哥,无法面对已经爱上苏珊娜的现实,于是离家出走。而苏珊娜万念俱灰,答应嫁给了艾尔弗莱德,而特里斯坦在草原之外也已结婚生子。事情好像趋于了平静,但特里斯坦妻子...

◎获奖情况 (共7项)
  第67届奥斯卡金像奖 (1995)
  最佳摄影
   └──约翰·托尔 (id:1276189)
  最佳音响(提名)
  最佳艺术指导(提名)

  第52届金球奖 (1995)
  电影类 最佳剧情片(提名)
  电影类 最佳导演(提名)
   └──爱德华·兹威克 (id:1027877)
  电影类 剧情片最佳男主角(提名)
   └──布拉德·皮特 (id:1054452)
  电影类 最佳原创配乐(提名)
   └──詹姆斯·霍纳 (id:1025277)

  1. ##### MediaInfo ######
  2. General
  3. Unique ID                                : 256517354761389922274630298048384060478 (0xC0FB720AE958D37E47762EEB0ED5CC3E)
  4. Complete name                            : Legends.of.the.Fall.1995.BluRay.1080p.x265.10bit.DDP5.1-MiniHD.mkv
  5. Format                                   : Matroska
  6. Format version                           : Version 4
  7. File size                                : 12.2 GiB
  8. Duration                                 : 2 h 12 min
  9. Overall bit rate                         : 13.2 Mb/s
  10. Movie name                               : Legends.of.the.Fall.1995.BluRay.1080p.x265.10bit.DDP5.1.MNHD-FRDS
  11. Encoded date                             : UTC 2022-06-03 10:48:35
  12. Writing application                      : mkvmerge v66.0.0 ('Josie') 64-bit
  13. Writing library                          : libebml v1.4.2 + libmatroska v1.6.4
  14. Cover                                    : Yes
  15. Attachments                              : cover.jpg
  16. Video
  17. ID                                       : 1
  18. Format                                   : HEVC
  19. Format/Info                              : High Efficiency Video Coding
  20. Format profile                           : Main 10@L5.1@High
  21. Codec ID                                 : V_MPEGH/ISO/HEVC
  22. Duration                                 : 2 h 12 min
  23. Bit rate                                 : 11.6 Mb/s
  24. Width                                    : 1 920 pixels
  25. Height                                   : 1 040 pixels
  26. Display aspect ratio                     : 1.85:1
  27. Frame rate mode                          : Constant
  28. Frame rate                               : 23.976 (24000/1001/53354) FPS
  29. Color space                              : YUV
  30. Chroma subsampling                       : 4:2:0
  31. Bit depth                                : 10 bits
  32. Bits/(Pixel*Frame)                       : 0.243
  33. Stream size                              : 10.8 GiB (88%)
  34. Writing library                          : x265 3.5+29-3415705dd:[Windows][MSVC 1930][64 bit] 10bit
  35. Encoding settings                        : cpuid=533541111039 / frame-threads=4 / numa-pools=16 / wpp / pmode / no-pme / no-psnr / no-ssim / log-level=2 / input-csp=1 / input-res=1920x1040 / interlace=0 / total-frames=191088 / level-idc=0 / high-tier=1 / uhd-bd=0 / ref=6 / no-allow-non-conformance / no-repeat-headers / annexb / no-aud / no-eob / no-eos / no-hrd / info / hash=0 / no-temporal-layers / no-open-gop / min-keyint=1 / keyint=250 / gop-lookahead=0 / bframes=8 / b-adapt=2 / b-pyramid / bframe-bias=0 / rc-lookahead=100 / lookahead-slices=0 / NTMzNTQ=uuDQuD2mJt9fsCf / scenecut=40 / no-hist-scenecut / radl=0 / no-splice / no-intra-refresh / ctu=32 / min-cu-size=8 / no-rect / no-amp / max-tu-size=32 / tu-inter-depth=4 / tu-intra-depth=4 / limit-tu=0 / rdoq-level=2 / dynamic-rd=0.00 / no-ssim-rd / signhide / no-tskip / nr-intra=0 / nr-inter=0 / no-constrained-intra / no-strong-intra-smoothing / max-merge=5 / limit-refs=0 / no-limit-modes / me=3 / subme=7 / merange=57 / temporal-mvp / no-frame-dup / no-hme / weightp / weightb / no-analyze-src-pics / deblock=-3:-3 / no-sao / no-sao-non-deblock / rd=4 / selective-sao=0 / no-early-skip / no-rskip / no-fast-intra / no-tskip-fast / no-cu-lossless / b-intra / no-splitrd-skip / rdpenalty=0 / psy-rd=1.50 / psy-rdoq=1.00 / no-rd-refine / no-lossless / cbqpoffs=-2 / crqpoffs=-2 / rc=crf / crf=22.0 / qcomp=0.65 / qpstep=4 / stats-write=0 / stats-read=0 / vbv-maxrate=160000 / vbv-bufsize=160000 / vbv-init=0.9 / min-vbv-fullness=50.0 / max-vbv-fullness=80.0 / crf-max=0.0 / crf-min=0.0 / ipratio=1.30 / pbratio=1.20 / aq-mode=1 / aq-strength=1.00 / no-cutree / zone-count=0 / no-strict-cbr / qg-size=8 / no-rc-grain / qpmax=69 / qpmin=0 / no-const-vbv / sar=0 / overscan=0 / videoformat=5 / range=0 / colorprim=1 / transfer=1 / colormatrix=1 / chromaloc=0 / display-window=0 / cll=0,0 / min-luma=0 / max-luma=1023 / log2-max-poc-lsb=8 / vui-timing-info / vui-hrd-info / slices=1 / no-opt-qp-pps / no-opt-ref-list-length-pps / no-multi-pass-opt-rps / scenecut-bias=0.05 / hist-threshold=0.03 / no-opt-cu-delta-qp / no-aq-motion / no-hdr10 / no-hdr10-opt / no-dhdr10-opt / no-idr-recovery-sei / analysis-reuse-level=0 / analysis-save-reuse-level=0 / analysis-load-reuse-level=0 / scale-factor=0 / refine-intra=0 / refine-inter=0 / refine-mv=1 / refine-ctu-distortion=0 / no-limit-sao / ctu-info=0 / no-lowpass-dct / refine-analysis-type=0 / copy-pic=1 / max-ausize-factor=1.0 / no-dynamic-refine / no-single-sei / no-hevc-aq / no-svt / no-field / qp-adaptation-range=1.00 / scenecut-aware-qp=0conformance-window-offsets / right=0 / bottom=0 / NTMzNTQ= / decoder-max-rate=0 / no-vbv-live-multi-pass
  36. Default                                  : Yes
  37. Forced                                   : No
  38. Color range                              : Limited
  39. Color primaries                          : BT.709
  40. Transfer characteristics                 : BT.709
  41. Matrix coefficients                      : BT.709
  42. Audio #1
  43. ID                                       : 2
  44. Format                                   : E-AC-3
  45. Format/Info                              : Enhanced AC-3
  46. Commercial name                          : Dolby Digital Plus
  47. Codec ID                                 : A_EAC3
  48. Duration                                 : 2 h 12 min
  49. Bit rate mode                            : Constant
  50. Bit rate                                 : 1 024 kb/s
  51. Channel(s)                               : 6 channels
  52. Channel layout                           : L R C LFE Ls Rs
  53. Sampling rate                            : 48.0 kHz
  54. Frame rate                               : 31.250 FPS (1536 SPF)
  55. Compression mode                         : Lossy
  56. Stream size                              : 973 MiB (8%)
  57. Title                                    : ENG
  58. Language                                 : English
  59. Service kind                             : Complete Main
  60. Default                                  : Yes
  61. Forced                                   : No
  62. Audio #2
  63. ID                                       : 3
  64. Format                                   : AC-3
  65. Format/Info                              : Audio Coding 3
  66. Commercial name                          : Dolby Digital
  67. Codec ID                                 : A_AC3
  68. Duration                                 : 2 h 12 min
  69. Bit rate mode                            : Constant
  70. Bit rate                                 : 448 kb/s
  71. Channel(s)                               : 6 channels
  72. Channel layout                           : L R C LFE Ls Rs
  73. Sampling rate                            : 48.0 kHz
  74. Frame rate                               : 31.250 FPS (1536 SPF)
  75. Compression mode                         : Lossy
  76. Stream size                              : 426 MiB (3%)
  77. Title                                    : 六区国配
  78. Language                                 : Chinese
  79. Service kind                             : Complete Main
  80. Default                                  : No
  81. Forced                                   : No
  82. Text #1
  83. ID                                       : 4
  84. Format                                   : PGS
  85. Muxing mode                              : zlib
  86. Codec ID                                 : S_HDMV/PGS
  87. Codec ID/Info                            : Picture based subtitle format used on BDs/HD-DVDs
  88. Duration                                 : 2 h 8 min
  89. Bit rate                                 : 81.6 kb/s
  90. Count of elements                        : 4321
  91. Stream size                              : 75.2 MiB (1%)
  92. Title                                    : CHS&ENG.特效
  93. Language                                 : Chinese
  94. Default                                  : Yes
  95. Forced                                   : No
  96. Text #2
  97. ID                                       : 5
  98. Format                                   : PGS
  99. Muxing mode                              : zlib
  100. Codec ID                                 : S_HDMV/PGS
  101. Codec ID/Info                            : Picture based subtitle format used on BDs/HD-DVDs
  102. Duration                                 : 2 h 8 min
  103. Bit rate                                 : 70.5 kb/s
  104. Count of elements                        : 4294
  105. Stream size                              : 65.0 MiB (1%)
  106. Title                                    : CHS.国配简中特效
  107. Language                                 : Chinese
  108. Default                                  : No
  109. Forced                                   : No
  110. Text #3
  111. ID                                       : 6
  112. ID in the original source medium         : 4608 (0x1200)
  113. Format                                   : PGS
  114. Muxing mode                              : zlib
  115. Codec ID                                 : S_HDMV/PGS
  116. Codec ID/Info                            : Picture based subtitle format used on BDs/HD-DVDs
  117. Duration                                 : 2 h 6 min
  118. Bit rate                                 : 24.8 kb/s
  119. Count of elements                        : 2077
  120. Stream size                              : 22.5 MiB (0%)
  121. Language                                 : English
  122. Default                                  : No
  123. Forced                                   : No
  124. Original source medium                   : Blu-ray
  125. Menu
  126. 00:00:00.000                             : en:Chapter 01
  127. 00:08:01.772                             : en:Chapter 02
  128. 00:15:00.941                             : en:Chapter 03
  129. 00:25:26.233                             : en:Chapter 04
  130. 00:34:06.044                             : en:Chapter 05
  131. 00:39:51.931                             : en:Chapter 06
  132. 00:50:03.458                             : en:Chapter 07
  133. 00:56:47.779                             : en:Chapter 08
  134. 01:05:58.245                             : en:Chapter 09
  135. 01:12:04.028                             : en:Chapter 10
  136. 01:22:04.336                             : en:Chapter 11
  137. 01:30:28.381                             : en:Chapter 12
  138. 01:37:19.667                             : en:Chapter 13
  139. 01:41:59.363                             : en:Chapter 14
  140. 01:53:30.512                             : en:Chapter 15
  141. 02:00:28.429                             : en:Chapter 16



此处一般会放置磁力链或种子下载链接,不过此链接需要注册会员才能看到,点击“立即注册”
磁力链下载【下载链接仅对注册会员开放,登陆后可见】
BT9527电影天堂 1、BT9527电影天堂提供的BT文件均来源于互联网抓取,只供网友学习交流、技术提升使用。
2、我们遵守BitTorrent点对点协议原则,任何版权问题请联系原资源发布商,我们不处理任何版权纠纷,谢谢!如有争议请联系邮箱:BT9527#hotmail.com(#换成@)
3、如果您发现某页面或地址有错误,请联系站长邮箱BT9527#hotmail.com(#换成@),我们会尽快处理。您的热心是对BT9527电影天堂最大的支持。
4、本站建议去正规影院观看电影以支持电影行业发展。
最新回复 (0)

你可以在 登录 or 注册 后,对此帖发表评论!

返回
发新帖