水中生活[国英多音轨/简繁英字幕].The.Life.Aquatic.with.Steve.Zissou.2004.CC.BluRay.1080p.x265.10bit.REPACK2-MiniHD 6.39GB

版主小s 3月前 249

✔资源类型:暂未分类   ✔电影年份:更 早   ✔电影地区:欧美   ✔电影分类:剧情

◎译  名 水中生活 / 海海人生(台) / 出海敢死队 / 水栖生命 / 水栖生活
◎片  名 The Life Aquatic with Steve Zissou
◎年  代 2004
◎产  地 美国
◎类  别 剧情 / 喜剧 / 冒险
◎语  言 英语 / 冰岛语 / 菲律宾语 / 葡萄牙语 / 法语 / 塔加路族语 / 德语 / 意大利语
◎上映日期 2004-12-25(美国)
◎IMDb链接 https://www.imdb.com/title/tt0362270/
◎豆瓣评分 7.8/10 (17726人评价)
◎豆瓣链接 https://movie.douban.com/subject/1308976/
◎片  长 119 分钟
◎导  演 韦斯·安德森 Wes Anderson (id:1044872)
◎编  剧 韦斯·安德森 Wes Anderson (id:1044872)
       诺亚·鲍姆巴赫 Noah Baumbach (id:1049678)
◎演  员 比尔·默瑞 Bill Murray (id:1054508)
       欧文·威尔逊 Owen Wilson (id:1006964)
       凯特·布兰切特 Cate Blanchett (id:1054441)
       安杰丽卡·休斯顿 Anjelica Huston (id:1010572)
       威廉·达福 Willem Dafoe (id:1010539)
       迈克尔·刚本 Michael Gambon (id:1027154)
       杰夫·高布伦 Jeff Goldblum (id:1025109)
       Robyn Cohen Robyn Cohen (id:1451433)
       诺亚·鲍姆巴赫 Noah Baumbach (id:1049678)
       马修·格雷·古柏勒 Matthew Gray Gubler (id:1031808)
       瓦里丝·阿卢瓦利亚 Waris Ahluwalia (id:1327732)
       斯蒂法诺玛丽亚奥托拉尼 Stefano Maria Ortolani (id:1293660)
       娜扎雷诺皮亚纳 Nazzareno Piana (id:1294477)
       帕维尔德沃夏克 Pawel Wdowczak (id:1300537)
       艾丽安·祖特纳 Arianne Sutner (id:1369642)
       韦斯·安德森 Wes Anderson (id:1044872)
       巴里·门德尔 Barry Mendel (id:1291824)
       马克·弗里德伯格 Mark Friedberg (id:1284205)
       Eugenio Ulissi Eugenio Ulissi (id:1299719)
       Marco Trentini Marco Trentini (id:1299507)
       斯蒂法诺玛丽亚奥托拉尼 Stefano Maria Ortolani (id:1293660)
       米兰拉·坎农诺 Milena Canonero (id:1279999)
       Gino Tamagnini Gino Tamagnini (id:1298876)
       弗朗西丝·汉农 Frances Hannon (id:1285986)
       文森佐·马斯特朗托尼奥 Vincenzo Mastrantonio (id:1291245)
       玛丽亚·特雷莎·科里多尼 Maria Teresa Corridoni (id:1281307)
       恩里科·雅科波尼 Enrico Jacoponi (id:1287529)
       大卫·吉亚马科 David Giammarco (id:1284792)
       丹尼·S·金 Danny S. Kim (id:1288541)
       Pat Sweeney Pat Sweeney (id:1298721)
       托马斯·坦嫩伯格 Thomas Tannenberger (id:1298908)
       蒂莫西·希特尔 Timothy Hittle (id:1286705)
       Pierre Couture Pierre Couture (id:1302246)
       杰瑞米·道森 Jeremy Dawson (id:1281945)
       丹·格列齐斯 Dan Trezise (id:1304842)
       沃尔特·康蒂 Walt Conti (id:1281165)
       Giuseppe Squillaci Giuseppe Squillaci (id:1312602)
       Joseph Brattesani Joseph Brattesani (id:1279205)
       Robert Scifo Robert Scifo (id:1297060)
       亨利·塞利克 Henry Selick (id:1036655)

◎简  介
  史蒂夫(比尔·默瑞 Bill Murray 饰)是一名海洋纪录片导演,他的作品曾经为许多孩子的童年披上了梦幻的色彩。在一次拍摄中,史蒂夫的老朋友死于美洲虎鲨之口,这让史蒂夫深受打击,他发誓要找到虎鲨,为友报仇,并且将此作为新片的题材。在发布会上,史蒂夫遇见了自称是自己儿子的耐德(欧文·威尔逊 Owen Wilson 饰),他遂邀请这个年轻人加入他的创作团队。史蒂夫要面临的难题很多,资金短缺,和妻子的感情不和,并且,他所拍摄的纪录片已经渐渐的失去了吸引力。                                       
                                    一位名叫珍妮(凯特·布兰切特 Cate Blanchett)的记者加入了史蒂夫的团队,她要为他写一本个人传记,然而,她和史蒂夫的相处并不融洽,倒是和耐德越走越近,这让史蒂夫醋意大发。同时,耐德的真实身份也让史蒂夫心寸怀疑。一群海盗的光临让史蒂夫的计划彻底破产,一名船员也惨遭绑架,面对这样糟糕的境况,...

◎获奖情况 (共1项)
  第55届柏林国际电影节 (2005)
  金熊奖 最佳影片(提名)
   └──韦斯·安德森 (id:1044872)

  1. ##### MediaInfo ######
  2. General
  3. Unique ID                                : 258557291720321179980831164424852195549 (0xC28452B32AF324F4665442279AF1C8DD)
  4. Complete name                            : The.Life.Aquatic.with.Steve.Zissou.2004.CC.BluRay.1080p.x265.10bit.REPACK2-MiniHD.mkv
  5. Format                                   : Matroska
  6. Format version                           : Version 4
  7. File size                                : 6.39 GiB
  8. Duration                                 : 1 h 58 min
  9. Overall bit rate                         : 7 705 kb/s
  10. Movie name                               : The Life Aquatic with Steve Zissou [2004] BluRay 1080p - FRDS
  11. Encoded date                             : UTC 2022-06-14 10:42:01
  12. Writing application                      : mkvmerge v68.0.0 ('The Curtain') 64-bit
  13. Writing library                          : libebml v1.4.2 + libmatroska v1.6.4
  14. Video
  15. ID                                       : 1
  16. Format                                   : HEVC
  17. Format/Info                              : High Efficiency Video Coding
  18. Format profile                           : Main 10@L4.1@High
  19. Codec ID                                 : V_MPEGH/ISO/HEVC
  20. Duration                                 : 1 h 58 min
  21. Bit rate                                 : 6 754 kb/s
  22. Width                                    : 1 920 pixels
  23. Height                                   : 822 pixels
  24. Display aspect ratio                     : 2.35:1
  25. Frame rate mode                          : Constant
  26. Frame rate                               : 23.976 (24000/1001/53354) FPS
  27. Color space                              : YUV
  28. Chroma subsampling                       : 4:2:0
  29. Bit depth                                : 10 bits
  30. Bits/(Pixel*Frame)                       : 0.178
  31. Stream size                              : 5.60 GiB (88%)
  32. Writing library                          : x265 3.1+2-g764455672+26:[Windows][GCC 8.3.0][64 bit] Yuuki 10bit+8bit+12bit
  33. Encoding settings                        : rc=crf / crf=22.0000 / qcomp=0.65 / qpstep=4 / stats-write=0 / stats-read=0 / vbv-maxrate=40000 / vbv-bufsize=40000 / vbv-init=0.9 / crf-max=0.0 / crf-min=0.0 / no-lossless / no-cu-lossless / aq-mode=1 / aq-strength=0.80 / cbqpoffs=-3 / crqpoffs=-3 / ipratio=1.40 / pbratio=1.30 / psy-rd=2.00 / psy-rdoq=5.00 / deblock=-1:-1 / ref=5 / limit-refs=1 / limit-modes / bframes=9 / b-adapt=2 / bframe-bias=0 / b-pyramid / b-intra / weightp / weightb / min-keyint=23 / max-keyint=240 / rc-lookahead=60 / gop-lookahead=0 / NTMzNTQ=uuDQuD2mJt9fsCf / scenecut=40 / radl=0 / max-cu-size=32 / min-cu-size=8 / me=3 / subme=4 / merange=25 / rdoq-level=1 / rd=4 / rdpenalty=1 / dynamic-rd=0.00 / no-rd-refine / ----- / no-cutree / no-sao / no-rect / no-amp / no-open-gop / wpp / pmode / pme / no-psnr / no-ssim / nr-intra=0 / nr-inter=0 / no-constrained-intra / no-strong-intra-smoothing / max-tu-size=16 / tu-inter-depth=2 / tu-intra-depth=2 / limit-tu=0 / qg-size=8 / qpmax=69 / qpmin=0 / ----- / cpuid=533541111039 / frame-threads=6 / numa-pools=32,32 / log-level=2 / csv / csv-log-level=0 / input-csp=1 / input-res=1920x822 / interlace=0 / level-idc=0 / high-tier=1 / uhd-bd=0 / no-allow-non-conformance / no-repeat-headers / no-aud / no-hrd / info / hash=0 / no-temporal-layers / lookahead-slices=0 / no-splice / no-intra-refresh / no-ssim-rd / signhide / no-tskip / max-merge=5 / temporal-mvp / no-analyze-src-pics / no-sao-non-deblock / no-early-skip / rskip / no-fast-intra / no-tskip-fast / no-splitrd-skip / zone-count=0 / no-strict-cbr / no-rc-grain / no-const-vbv / sar=0 / overscan=0 / videoformat=5 / range=0 / colorprim=1 / transfer=1 / colormatrix=1 / chromaloc=0 / display-window=0cll=0,0 / min-luma=0 / max-luma=1023 / log2-max-poc-lsb=8 / vui-timing-info / vui-hrd-info / slices=1 / no-opt-qp-pps / no-opt-ref-list-length-pps / no-multi-pass-opt-rps / scenecut-bias=0.05 / no-opt-cu-delta-qp / no-aq-motion / no-hdr / no-hdr-opt / no-dhdr10-opt / no-idr-recovery-sei / analysis-reuse-level=5 / scale-factor=0 / refine-intra=0 / refine-inter=0 / refine-mv=0 / refine-ctu-distortion=0 / no-limit-sao / ctu-info=0 / no-lowpass-dct / refine-analysis-type=0 / copy-pic=1 / max-ausize-factor=1.0 / no-dynamic-refine / no-single-sei / no-hevc-aq / no-svt / no-field / qp-adaptation-range=1.00
  34. Default                                  : Yes
  35. Forced                                   : No
  36. Color range                              : Limited
  37. Color primaries                          : BT.709
  38. Transfer characteristics                 : BT.709
  39. Matrix coefficients                      : BT.709
  40. Audio #1
  41. ID                                       : 2
  42. Format                                   : AC-3
  43. Format/Info                              : Audio Coding 3
  44. Commercial name                          : Dolby Digital
  45. Codec ID                                 : A_AC3
  46. Duration                                 : 1 h 58 min
  47. Bit rate mode                            : Constant
  48. Bit rate                                 : 640 kb/s
  49. Channel(s)                               : 6 channels
  50. Channel layout                           : L R C LFE Ls Rs
  51. Sampling rate                            : 48.0 kHz
  52. Frame rate                               : 31.250 FPS (1536 SPF)
  53. Compression mode                         : Lossy
  54. Stream size                              : 544 MiB (8%)
  55. Language                                 : English
  56. Service kind                             : Complete Main
  57. Default                                  : Yes
  58. Forced                                   : No
  59. Audio #2
  60. ID                                       : 3
  61. Format                                   : AC-3
  62. Format/Info                              : Audio Coding 3
  63. Commercial name                          : Dolby Digital
  64. Codec ID                                 : A_AC3
  65. Duration                                 : 1 h 58 min
  66. Bit rate mode                            : Constant
  67. Bit rate                                 : 192 kb/s
  68. Channel(s)                               : 2 channels
  69. Channel layout                           : L R
  70. Sampling rate                            : 48.0 kHz
  71. Frame rate                               : 31.250 FPS (1536 SPF)
  72. Compression mode                         : Lossy
  73. Stream size                              : 163 MiB (2%)
  74. Language                                 : Chinese
  75. Service kind                             : Complete Main
  76. Default                                  : No
  77. Forced                                   : No
  78. Audio #3
  79. ID                                       : 4
  80. Format                                   : Opus
  81. Codec ID                                 : A_OPUS
  82. Duration                                 : 1 h 58 min
  83. Bit rate                                 : 63.3 kb/s
  84. Channel(s)                               : 2 channels
  85. Channel layout                           : L R
  86. Sampling rate                            : 48.0 kHz
  87. Frame rate                               : 50.000 FPS (960 SPF)
  88. Compression mode                         : Lossy
  89. Stream size                              : 53.8 MiB (1%)
  90. Title                                    : Commentary by Wes Anderson and Noah Baumbach
  91. Writing library                          : opusenc from opus-tools 0.2-3-gf5f571b
  92. Language                                 : English
  93. Default                                  : No
  94. Forced                                   : No
  95. ENCODER_OPTIONS                          : --bitrate 64
  96. Text #1
  97. ID                                       : 5
  98. Format                                   : PGS
  99. Muxing mode                              : zlib
  100. Codec ID                                 : S_HDMV/PGS
  101. Codec ID/Info                            : Picture based subtitle format used on BDs/HD-DVDs
  102. Duration                                 : 1 h 51 min
  103. Bit rate                                 : 26.2 kb/s
  104. Count of elements                        : 2816
  105. Stream size                              : 20.8 MiB (0%)
  106. Title                                    : CHS
  107. Language                                 : Chinese
  108. Default                                  : Yes
  109. Forced                                   : No
  110. Text #2
  111. ID                                       : 6
  112. Format                                   : PGS
  113. Muxing mode                              : zlib
  114. Codec ID                                 : S_HDMV/PGS
  115. Codec ID/Info                            : Picture based subtitle format used on BDs/HD-DVDs
  116. Duration                                 : 1 h 51 min
  117. Bit rate                                 : 27.1 kb/s
  118. Count of elements                        : 2816
  119. Stream size                              : 21.5 MiB (0%)
  120. Title                                    : CHT
  121. Language                                 : Chinese
  122. Default                                  : Yes
  123. Forced                                   : No
  124. Text #3
  125. ID                                       : 7
  126. Format                                   : PGS
  127. Muxing mode                              : zlib
  128. Codec ID                                 : S_HDMV/PGS
  129. Codec ID/Info                            : Picture based subtitle format used on BDs/HD-DVDs
  130. Duration                                 : 1 h 57 min
  131. Bit rate                                 : 59.3 kb/s
  132. Count of elements                        : 1963
  133. Stream size                              : 50.0 MiB (1%)
  134. Title                                    : CHS for Commentary
  135. Language                                 : Chinese
  136. Default                                  : No
  137. Forced                                   : No
  138. Text #4
  139. ID                                       : 8
  140. Format                                   : UTF-8
  141. Codec ID                                 : S_TEXT/UTF8
  142. Codec ID/Info                            : UTF-8 Plain Text
  143. Duration                                 : 1 h 53 min
  144. Bit rate                                 : 67 b/s
  145. Count of elements                        : 1529
  146. Stream size                              : 56.5 KiB (0%)
  147. Title                                    : ENG-SRT
  148. Language                                 : English
  149. Default                                  : No
  150. Forced                                   : No
  151. Text #5
  152. ID                                       : 9
  153. Format                                   : UTF-8
  154. Codec ID                                 : S_TEXT/UTF8
  155. Codec ID/Info                            : UTF-8 Plain Text
  156. Duration                                 : 1 h 57 min
  157. Bit rate                                 : 70 b/s
  158. Count of elements                        : 1672
  159. Stream size                              : 60.8 KiB (0%)
  160. Title                                    : ENG-SDH
  161. Language                                 : English
  162. Default                                  : No
  163. Forced                                   : No
  164. Text #6
  165. ID                                       : 10
  166. Format                                   : UTF-8
  167. Codec ID                                 : S_TEXT/UTF8
  168. Codec ID/Info                            : UTF-8 Plain Text
  169. Duration                                 : 1 h 51 min
  170. Bit rate                                 : 69 b/s
  171. Count of elements                        : 1539
  172. Stream size                              : 56.2 KiB (0%)
  173. Language                                 : Romanian
  174. Default                                  : No
  175. Forced                                   : No
  176. Menu
  177. 00:00:00.000                             : en:Adventure No. 12: "The Jaguar Shark" (Part 1)
  178. 00:05:03.428                             : en:He's the Zissou
  179. 00:09:41.331                             : en:"Life on Mars?"
  180. 00:13:24.012                             : en:One Foot off the Merry-Go-Round
  181. 00:14:59.398                             : en:The Belafonte
  182. 00:16:39.207                             : en:Explorers Club
  183. 00:19:27.083                             : en:Zissou Compound
  184. 00:21:11.437                             : en:Jane Winslett-Richardson
  185. 00:25:16.807                             : en:Catch as Catch Can
  186. 00:27:25.352                             : en:Fake, Phony, and a Bad Reporter
  187. 00:29:48.620                             : en:Kingsley (Ned) Zissou
  188. 00:32:50.719                             : en:Do the Interns Get Glocks?
  189. 00:34:31.236                             : en:Oseary Drakoulias Productions
  190. 00:36:04.662                             : en:"Gut Feelings"
  191. 00:38:10.663                             : en:Season 3: Episode XIV "Trapped in the Ice!"
  192. 00:41:12.261                             : en:Day 1: The Belafonte at Sea
  193. 00:45:20.092                             : en:Dear Ned Plimpton...
  194. 00:47:01.360                             : en:Day 5: Operation Hennessey Underwater Sea-Laboratory
  195. 00:50:10.591                             : en:Daydream Johnny
  196. 00:53:47.307                             : en:6 AM: Investigating the Phantom Signal
  197. 00:56:58.957                             : en:Day 9: In Unprotected Waters
  198. 01:06:37.410                             : en:Day 14: Mutiny on the Belafonte
  199. 01:13:45.296                             : en:Day 20: Towed Into Port-au-Patois Harbor
  200. 01:21:37.184                             : en:The Brains Behind Team Zissou
  201. 01:24:40.284                             : en:Day 27: Rescuing the Bond Company Stooge
  202. 01:34:43.678                             : en:Letter from Jane
  203. 01:40:04.540                             : en:All Hands Bury the Dead
  204. 01:45:08.385                             : en:I Wonder if he Remembered Me?
  205. 01:50:28.539                             : en:This is an Adventure
  206. 01:51:49.786                             : en:"Queen Bitch"





此处一般会放置磁力链或种子下载链接,不过此链接需要注册会员才能看到,点击“立即注册”
磁力链下载【下载链接仅对注册会员开放,登陆后可见】
BT9527电影天堂 1、BT9527电影天堂提供的BT文件均来源于互联网抓取,只供网友学习交流、技术提升使用。
2、我们遵守BitTorrent点对点协议原则,任何版权问题请联系原资源发布商,我们不处理任何版权纠纷,谢谢!如有争议请联系邮箱:BT9527#hotmail.com(#换成@)
3、如果您发现某页面或地址有错误,请联系站长邮箱BT9527#hotmail.com(#换成@),我们会尽快处理。您的热心是对BT9527电影天堂最大的支持。
4、本站建议去正规影院观看电影以支持电影行业发展。
最新回复 (0)

你可以在 登录 or 注册 后,对此帖发表评论!

返回