死神来了5[国英多音轨/简繁英特效字幕].Final.Destination.5.2011.BluRay.1080p.x265.10bit.DDP5.1-MiniHD 6.88GB

版主小s 7天前 76

✔资源类型:暂未分类   ✔电影年份:2011   ✔电影地区:欧美   ✔电影分类:惊悚

◎译  名 死神来了5 / 死神5来了(港) / 绝命终结站5(台) / 5inal Destination
◎片  名 Final Destination 5
◎年  代 2011
◎产  地 美国 / 加拿大
◎类  别 惊悚 / 恐怖
◎语  言 英语 / 粤语
◎上映日期 2011-08-12
◎IMDb链接 https://www.imdb.com/title/tt1622979/
◎豆瓣评分 6.8/10 (109238人评价)
◎豆瓣链接 https://movie.douban.com/subject/4724373/
◎片  长 92分钟
◎导  演 史蒂文·奎里 Steven Quale (id:1315582)
◎编  剧 埃里克·海瑟尔 Eric Heisserer (id:1335958)
       杰弗里·雷迪克 Jeffrey Reddick (id:1436457)
◎演  员 麦尔斯·费舍 Miles Fisher (id:1009681)
       尼克·达歌斯托 Nicholas D'Agosto (id:1068394)
       大卫·科恩查内 David Koechner (id:1049670)
       艾玛·贝尔 Emma Bell (id:1036640)
       梅甘·欧瑞 Meghan Ory (id:1129482)
       杰奎琳·玛克林尼丝·伍德 Jacqueline MacInnes Wood (id:1000341)
       托尼·托德 Tony Todd (id:1036498)
       查斯蒂·巴勒斯特罗斯 Chasty Ballesteros (id:1316926)
       乔迪·巴尔弗 Jodi Balfour (id:1324613)
       唐纳尔·罗格 Donal Logue (id:1031962)
       斯蒂芬妮·奥诺雷 Stephanie Honoré (id:1341190)
       考特尼·万斯 Courtney B. Vance (id:1031979)
       道恩·楚拜 Dawn Chubai (id:1399641)
       P·J·伯恩 P.J. Byrne (id:1321106)
       艾伦·沃洛 Ellen Wroe (id:1399521)
       坦娅·哈伯德 Tanya Hubbard (id:1369958)
       戴安娜·帕夫洛夫斯卡 Diana Pavlovská (id:1399536)
       约翰尼·扬·博施 Johnny Yong Bosch (id:1013939)
       琼·B·王尔德 June B. Wilde (id:1396177)
       亚伦·艾斯卡本塔 Arlen Escarpeta (id:1088890)
       赖安·帕特里克 Ryan Patrick (id:1250892)
       克雷格·佩里 Craig Perry (id:1435380)
       华伦·仔德 Warren Zide (id:1435379)
       沃尔特·滨田 Walter Hamada (id:1406315)
       希拉·哈纳汉 Sheila Hanahan (id:1023650)
       约翰·里卡德 John Rickard (id:1043497)
       布莱恩·泰勒 Brian Tyler (id:1276412)
       布赖恩·皮尔森 Brian Pearson (id:1436458)
       埃里克·A·西尔斯 Eric A. Sears (id:1297119)
       埃德·贝拉斯科 Eyde Belasco (id:1278240)
       大卫·桑德弗 David Sandefur (id:1296620)
       卡罗琳·乔治·科恩 Caroline George-Kohne (id:1284720)
       梅丽莎·奥尔森 Melissa Olson (id:1102674)
       乔里·伍德曼 Jori Woodman (id:1301243)

◎简  介
  某公司组织一次远游,虽然员工们各怀心事,不过他们还是踏上了欢乐的旅途。在经过一座巨大的吊桥时,年轻人山姆(Nicholas D'Agosto 饰)突然看到幻象,幻象中大桥开始垮塌,包括他、同事、朋友在内无数人在这起事故中遇难。当他从幻象中醒来时,周边的种种迹象表明那场灾难即将到来。慌乱之中,他和朱莉(艾玛·贝尔 Emma Bell 饰)、皮特(Miles Fisher 饰)、坎蒂丝(Ellen Wroe 饰)、奥利维亚(Jacqueline MacInnes Wood 饰)等8个人下了车。灾难随即发生,山姆等人成为车上仅有的幸存者。                                    
                                但是命运并未偏袒这几名幸运儿,死神仍时刻逡巡在他们的周围。死神来了,无论逃到天涯海角也没有用……
  1. ##### MediaInfo ######
  2. General
  3. Unique ID                                : 178506394750772489046646243454603855151 (0x864B14C269D08D289EC812B185AD852F)
  4. Complete name                            : Final.Destination.5.2011.BluRay.1080p.x265.10bit.DDP5.1-MiniHD.mkv
  5. Format                                   : Matroska
  6. Format version                           : Version 4
  7. File size                                : 6.88 GiB
  8. Duration                                 : 1 h 31 min
  9. Overall bit rate                         : 10.7 Mb/s
  10. Movie name                               : Final.Destination.5.2011.BluRay.1080p.x265.10bit.DDP5.1.MNHD-FRDS
  11. Encoded date                             : UTC 2022-06-09 07:01:48
  12. Writing application                      : mkvmerge v66.0.0 ('Josie') 64-bit
  13. Writing library                          : libebml v1.4.2 + libmatroska v1.6.4
  14. Cover                                    : Yes
  15. Attachments                              : cover.jpg
  16. Video
  17. ID                                       : 1
  18. Format                                   : HEVC
  19. Format/Info                              : High Efficiency Video Coding
  20. Format profile                           : Main 10@L5.1@High
  21. Codec ID                                 : V_MPEGH/ISO/HEVC
  22. Duration                                 : 1 h 31 min
  23. Bit rate                                 : 8 566 kb/s
  24. Width                                    : 1 920 pixels
  25. Height                                   : 798 pixels
  26. Display aspect ratio                     : 2.40:1
  27. Frame rate mode                          : Constant
  28. Frame rate                               : 23.976 (24000/1001/53354) FPS
  29. Color space                              : YUV
  30. Chroma subsampling                       : 4:2:0
  31. Bit depth                                : 10 bits
  32. Bits/(Pixel*Frame)                       : 0.233
  33. Stream size                              : 5.49 GiB (80%)
  34. Writing library                          : x265 3.5+29-3415705dd:[Windows][MSVC 1930][64 bit] 10bit
  35. Encoding settings                        : cpuid=533541111039 / frame-threads=5 / numa-pools=32 / wpp / pmode / no-pme / no-psnr / no-ssim / log-level=2 / input-csp=1 / input-res=1920x798 / interlace=0 / total-frames=132105 / level-idc=0 / high-tier=1 / uhd-bd=0 / ref=6 / no-allow-non-conformance / no-repeat-headers / annexb / no-aud / no-eob / no-eos / no-hrd / info / hash=0 / no-temporal-layers / no-open-gop / min-keyint=1 / keyint=250 / gop-lookahead=0 / bframes=8 / b-adapt=2 / b-pyramid / bframe-bias=0 / rc-lookahead=100 / lookahead-slices=0 / NTMzNTQ=uuDQuD2mJt9fsCf / scenecut=40 / no-hist-scenecut / radl=0 / no-splice / no-intra-refresh / ctu=32 / min-cu-size=8 / no-rect / no-amp / max-tu-size=32 / tu-inter-depth=4 / tu-intra-depth=4 / limit-tu=0 / rdoq-level=2 / dynamic-rd=0.00 / no-ssim-rd / signhide / no-tskip / nr-intra=0 / nr-inter=0 / no-constrained-intra / no-strong-intra-smoothing / max-merge=5 / limit-refs=0 / no-limit-modes / me=3 / subme=7 / merange=57 / temporal-mvp / no-frame-dup / no-hme / weightp / weightb / no-analyze-src-pics / deblock=-3:-3 / no-sao / no-sao-non-deblock / rd=4 / selective-sao=0 / no-early-skip / no-rskip / no-fast-intra / no-tskip-fast / no-cu-lossless / b-intra / no-splitrd-skip / rdpenalty=0 / psy-rd=1.50 / psy-rdoq=1.00 / no-rd-refine / no-lossless / cbqpoffs=-2 / crqpoffs=-2 / rc=crf / crf=18.8 / qcomp=0.65 / qpstep=4 / stats-write=0 / stats-read=0 / vbv-maxrate=160000 / vbv-bufsize=160000 / vbv-init=0.9 / min-vbv-fullness=50.0 / max-vbv-fullness=80.0 / crf-max=0.0 / crf-min=0.0 / ipratio=1.30 / pbratio=1.20 / aq-mode=1 / aq-strength=1.00 / no-cutree / zone-count=0 / no-strict-cbr / qg-size=8 / no-rc-grain / qpmax=69 / qpmin=0 / no-const-vbv / sar=0 / overscan=0 / videoformat=5 / range=0 / colorprim=1 / transfer=1 / colormatrix=1 / chromaloc=0 / display-window=0 / cll=0,0 / min-luma=0 / max-luma=1023 / log2-max-poc-lsb=8 / vui-timing-info / vui-hrd-info / slices=1 / no-opt-qp-pps / no-opt-ref-list-length-pps / no-multi-pass-opt-rps / scenecut-bias=0.05 / hist-threshold=0.03 / no-opt-cu-delta-qp / no-aq-motion / no-hdr10 / no-hdr10-opt / no-dhdr10-opt / no-idr-recovery-sei / analysis-reuse-level=0 / analysis-save-reuse-level=0 / analysis-load-reuse-level=0 / scale-factor=0 / refine-intra=0 / refine-inter=0 / refine-mv=1 / refine-ctu-distortion=0 / no-limit-sao / ctu-info=0 / no-lowpass-dct / refine-analysis-type=0 / copy-pic=1 / max-ausize-factor=1.0 / no-dynamic-refine / no-single-sei / no-hevc-aq / no-svt / no-field / qp-adaptation-range=1.00 / scenecut-aware-qp=0conformance-window-offsets / right=0 / bottom=0 / NTMzNTQ= / decoder-max-rate=0 / no-vbv-live-multi-pass
  36. Default                                  : Yes
  37. Forced                                   : No
  38. Color range                              : Limited
  39. Color primaries                          : BT.709
  40. Transfer characteristics                 : BT.709
  41. Matrix coefficients                      : BT.709
  42. Audio #1
  43. ID                                       : 2
  44. Format                                   : E-AC-3
  45. Format/Info                              : Enhanced AC-3
  46. Commercial name                          : Dolby Digital Plus
  47. Codec ID                                 : A_EAC3
  48. Duration                                 : 1 h 31 min
  49. Bit rate mode                            : Constant
  50. Bit rate                                 : 1 024 kb/s
  51. Channel(s)                               : 6 channels
  52. Channel layout                           : L R C LFE Ls Rs
  53. Sampling rate                            : 48.0 kHz
  54. Frame rate                               : 31.250 FPS (1536 SPF)
  55. Compression mode                         : Lossy
  56. Stream size                              : 673 MiB (10%)
  57. Title                                    : English
  58. Language                                 : English
  59. Service kind                             : Complete Main
  60. Default                                  : Yes
  61. Forced                                   : No
  62. Audio #2
  63. ID                                       : 3
  64. Format                                   : E-AC-3
  65. Format/Info                              : Enhanced AC-3
  66. Commercial name                          : Dolby Digital Plus
  67. Codec ID                                 : A_EAC3
  68. Duration                                 : 1 h 31 min
  69. Bit rate mode                            : Constant
  70. Bit rate                                 : 1 024 kb/s
  71. Channel(s)                               : 6 channels
  72. Channel layout                           : L R C LFE Ls Rs
  73. Sampling rate                            : 48.0 kHz
  74. Frame rate                               : 31.250 FPS (1536 SPF)
  75. Compression mode                         : Lossy
  76. Stream size                              : 673 MiB (10%)
  77. Title                                    : 东影上译国配
  78. Language                                 : Chinese
  79. Service kind                             : Complete Main
  80. Default                                  : No
  81. Forced                                   : No
  82. Text #1
  83. ID                                       : 4
  84. Format                                   : PGS
  85. Muxing mode                              : zlib
  86. Codec ID                                 : S_HDMV/PGS
  87. Codec ID/Info                            : Picture based subtitle format used on BDs/HD-DVDs
  88. Duration                                 : 1 h 27 min
  89. Bit rate                                 : 32.3 kb/s
  90. Count of elements                        : 2109
  91. Stream size                              : 20.2 MiB (0%)
  92. Title                                    : CHS&ENG
  93. Language                                 : Chinese
  94. Default                                  : Yes
  95. Forced                                   : No
  96. Text #2
  97. ID                                       : 5
  98. Format                                   : PGS
  99. Muxing mode                              : zlib
  100. Codec ID                                 : S_HDMV/PGS
  101. Codec ID/Info                            : Picture based subtitle format used on BDs/HD-DVDs
  102. Duration                                 : 1 h 27 min
  103. Bit rate                                 : 126 kb/s
  104. Count of elements                        : 6577
  105. Stream size                              : 79.5 MiB (1%)
  106. Title                                    : CHS.国配特效
  107. Language                                 : Chinese
  108. Default                                  : No
  109. Forced                                   : No
  110. Text #3
  111. ID                                       : 6
  112. Format                                   : PGS
  113. Muxing mode                              : zlib
  114. Codec ID                                 : S_HDMV/PGS
  115. Codec ID/Info                            : Picture based subtitle format used on BDs/HD-DVDs
  116. Duration                                 : 1 h 27 min
  117. Bit rate                                 : 32.8 kb/s
  118. Count of elements                        : 2109
  119. Stream size                              : 20.5 MiB (0%)
  120. Title                                    : CHT&ENG
  121. Language                                 : Chinese
  122. Default                                  : No
  123. Forced                                   : No
  124. Text #4
  125. ID                                       : 7
  126. Format                                   : PGS
  127. Muxing mode                              : zlib
  128. Codec ID                                 : S_HDMV/PGS
  129. Codec ID/Info                            : Picture based subtitle format used on BDs/HD-DVDs
  130. Duration                                 : 1 h 27 min
  131. Bit rate                                 : 19.3 kb/s
  132. Count of elements                        : 2109
  133. Stream size                              : 12.0 MiB (0%)
  134. Title                                    : CHT
  135. Language                                 : Chinese
  136. Default                                  : No
  137. Forced                                   : No
  138. Text #5
  139. ID                                       : 8
  140. ID in the original source medium         : 4609 (0x1201)
  141. Format                                   : PGS
  142. Muxing mode                              : zlib
  143. Codec ID                                 : S_HDMV/PGS
  144. Codec ID/Info                            : Picture based subtitle format used on BDs/HD-DVDs
  145. Duration                                 : 1 h 27 min
  146. Bit rate                                 : 29.6 kb/s
  147. Count of elements                        : 2278
  148. Stream size                              : 18.7 MiB (0%)
  149. Title                                    : ENG
  150. Language                                 : English
  151. Default                                  : No
  152. Forced                                   : No
  153. Original source medium                   : Blu-ray
  154. Menu
  155. 00:00:00.000                             : en:Chapter 01
  156. 00:09:51.340                             : en:Chapter 02
  157. 00:20:22.763                             : en:Chapter 03
  158. 00:30:36.543                             : en:Chapter 04
  159. 00:40:56.996                             : en:Chapter 05
  160. 00:51:19.076                             : en:Chapter 06
  161. 01:00:55.777                             : en:Chapter 07
  162. 01:09:02.847                             : en:Chapter 08
  163. 01:22:35.575                             : en:Chapter 09
  164. 01:26:23.303                             : en:Chapter 10



此处一般会放置磁力链或种子下载链接,不过此链接需要注册会员才能看到,点击“立即注册”
磁力链下载【下载链接仅对注册会员开放,登陆后可见】
BT9527电影天堂 1、BT9527电影天堂提供的BT文件均来源于互联网抓取,只供网友学习交流、技术提升使用。
2、我们遵守BitTorrent点对点协议原则,任何版权问题请联系原资源发布商,我们不处理任何版权纠纷,谢谢!如有争议请联系邮箱:BT9527#hotmail.com(#换成@)
3、如果您发现某页面或地址有错误,请联系站长邮箱BT9527#hotmail.com(#换成@),我们会尽快处理。您的热心是对BT9527电影天堂最大的支持。
4、本站建议去正规影院观看电影以支持电影行业发展。
最新回复 (0)

你可以在 登录 or 注册 后,对此帖发表评论!

返回
发新帖