死神来了4[国英多音轨/简繁英特效字幕].Final.Destination.4.2009.BluRay.1080p.x265.10bit.DDP5.1-MiniHD 6.43GB

版主小s 7天前 39

✔资源类型:暂未分类   ✔电影年份:2009   ✔电影地区:欧美   ✔电影分类:惊悚

◎译  名 死神来了4 / 死神4来了(港) / 绝命终结站4(台)
◎片  名 The Final Destination
◎年  代 2009
◎产  地 美国
◎类  别 惊悚 / 恐怖
◎语  言 英语
◎上映日期 2009-08-28
◎IMDb链接 https://www.imdb.com/title/tt1144884/
◎豆瓣评分 6.6/10 (118392人评价)
◎豆瓣链接 https://movie.douban.com/subject/2357708/
◎片  长 82 分钟
◎导  演 大卫·R·艾里斯 David R. Ellis (id:1050082)
◎编  剧 埃里克·布雷斯 Eric Bress (id:1279265)
       杰弗里·雷迪克 Jeffrey Reddick (id:1436457)
◎演  员 鲍比·坎波 Bobby Campo (id:1032177)
       珊特尔·范圣滕 Shantel VanSanten (id:1022677)
       尼克·扎诺 Nick Zano (id:1031941)
       海雷·韦伯 Haley Webb (id:1036737)
       麦凯尔泰·威廉逊 Mykelti Williamson (id:1031912)
       克里丝塔·艾伦 Krista Allen (id:1002712)
       安德鲁·费斯切拉 Andrew Fiscella (id:1080845)
       贾斯汀·维尔伯恩 Justin Welborn (id:1377677)
       斯蒂芬妮·奥诺雷 Stephanie Honoré (id:1341190)
       拉腊·格赖斯 Lara Grice (id:1182096)
       菲尔·奥斯汀 Phil Austin (id:1336512)
       克里斯·弗赖伊 Chris Fry (id:1215782)
       蒂娜·帕克 Tina Parker (id:1372366)
       戴恩·罗兹 Dane Rhodes (id:1330957)
       加布丽埃勒·沙潘 Gabrielle Chapin (id:1375853)
        Dane Brown (id:1265869)
       珍娜·克莱格 Jenna Craig (id:1188107)
       约书亚·戴维斯 Joshua Davis (id:1042898)
        Lauren Denham (id:1271052)
       瑞奇·迪亚兹 Ricky Diaz (id:1010204)
        Joanna Doherty (id:1272978)
       安东尼·迈克尔·弗雷德里克 Anthony Michael Frederick (id:1187430)
        Kyrt Gates (id:1265429)
        Shaun Gilmer (id:1258661)
       罗德尼·赫伯特 Rodney Hebert (id:1242545)
        Alan Wyn Hughes (id:1268251)
       艾丽·拉特 Ali Larter (id:1018978)
       劳丽·李 Laurie Lee (id:1260805)
       Jake Moritt Jake Moritt (id:1170221)
       杰里米·帕尔科 Jeremy Palko (id:1226420)
       克鲁瓦·普罗旺斯 Croix Provence (id:1325389)
       比利·斯洛特 Billy Slaughter (id:1205890)
        Chaz Smith (id:1238867)
       洛根·道格拉斯·史密斯 Logan Douglas Smith (id:1271844)
       特里·李·史密斯 Terry Lee Smith (id:1273073)
       Louis St. Romain Louis St. Romain (id:1248110)
        Corey Stewart (id:1256437)
        Preston Strother (id:1253104)
       科琳·特拉斯勒 Colleen Trusler (id:1330316)
       Andy Ussach Andy Ussach (id:1152503)
       克雷格·佩里 Craig Perry (id:1435380)
       Tawny Ellis Tawny Ellis (id:1014947)
       希拉·哈纳汉 Sheila Hanahan (id:1023650)
       华伦·仔德 Warren Zide (id:1435379)
       布莱恩·泰勒 Brian Tyler (id:1276412)
       格伦·麦克弗森 Glen MacPherson (id:1041789)
       林赛·海斯·克罗格尔 Lindsey Hayes Kroeger (id:1094129)
       大卫·拉帕波特 David Rapaport (id:1148535)
       Jaymes Hinkle Jaymes Hinkle (id:1055919)
       Scott Plauche Scott Plauche (id:1294614)
       格里高利·尼克特洛 Gregory Nicotero (id:1128804)
        Amy Wood (id:1231477)
       霍华德·伯杰 Howard Berger (id:1278442)
        Krystal Kershaw (id:1253537)
       Jeffrey J. Dashnaw Jeffrey J. Dashnaw (id:1088487)
       Paul Uddo Paul Uddo (id:1210032)
       马克·海尔弗里奇 Mark Helfrich (id:1286387)
       Eric A. Pot Eric A. Pot (id:1025653)
       Sherman Shelton Jr. Sherman Shelton Jr. (id:1184211)
       Junji Hirano Junji Hirano (id:1310479)
       马克·贝克 Mat Beck (id:1278183)
       Pharoah Barrett Pharoah Barrett (id:1312053)
        Ian T. Barbella (id:1253173)
       C·迈克尔·尼利 C. Michael Neely (id:1410102)
       亚伦·莱希特 Aaron N. Leichter (id:1250710)
        Sean O'Connor (id:1246014)
        Joanie Croteau (id:1243236)
       Richard Martin Richard Martin (id:1291141)
        Steven Hansen (id:1221609)
       Glenn Curry Glenn Curry (id:1215700)
       里克·帕内罗 Rik Panero (id:1211823)
       埃里克·亨利 Erik Henry (id:1286464)
       Daniel Leduc Daniel Leduc (id:1289641)
       Kaz Yoshida Kaz Yoshida (id:1310335)
       Jeremy Nicolaides Jeremy Nicolaides (id:1309747)
       Andrea Shear Andrea Shear (id:1309254)
       Sébastien Rioux Sébastien Rioux (id:1308057)
       David E. Franks David E. Franks (id:1306395)
       Trent Smith Trent Smith (id:1305176)
       Nadine Homier Nadine Homier (id:1304778)
       Leif Einarsson Leif Einarsson (id:1303968)
       Sylvie Talbot Sylvie Talbot (id:1298860)
       塔米·萨顿 Tammy Sutton (id:1298686)
       马克·G·索佩尔 Mark G. Soper (id:1298071)
       Pierre Raymond Pierre Raymond (id:1295305)
       Andre Waller Andre Waller (id:1311892)
       菲奥娜·坎贝尔·韦斯特盖特 Fiona Campbell Westgate (id:1201212)
       Jean-Francois Houde Jean-Francois Houde (id:1201001)
       Felipe Fenton Felipe Fenton (id:1079785)
       Christopher Johnson Christopher Johnson (id:1105844)
       Sebastien Dostie Sebastien Dostie (id:1034250)
       曼尼·王 Manny Wong (id:1301196)
       George Loucas George Loucas (id:1024495)
       Tommy Williamson Tommy Williamson (id:1017162)
       克里斯汀·布拉南 Kristen Branan (id:1078302)
       迈克尔·乔伊斯 Michael Joyce (id:1008348)
       Pierre Blain Pierre Blain (id:1188646)

◎简  介
  尼克(鲍比?坎波 Bobby Campo 饰)携女友洛丽(珊特尔?范圣藤 Shantel VanSanten 饰)和朋友亨特(尼克?扎诺 Nick Zano 饰)及女友简妮(海莉?魏波)到赛车场观看赛车表演,尼克突然预见某辆赛车将发生事故冲向人群,部分看台坍塌,他与朋友全部丧生。惊慌失措的尼克强迫朋友随他离开赛场,并惊动了保安乔治(麦凯尔泰?威廉逊 Mykelti Williamson)及其他四位观众。逃过死神的尼克发现幸存者们纷纷在稀奇古怪的事故中丧命,而自己竟能预见死亡原因。恐惧中尼克和洛丽求助于乔治,试图打破怪圈对抗死神,然而努力真会见效,宿命真能改变吗?                                    
                                本片是《死神来了》系列的首部3D版本。
  1. ##### MediaInfo ######
  2. General
  3. Unique ID                                : 56097807146530193423868234410565898934 (0x2A340B6ED30C757C12DC2A0C766912B6)
  4. Complete name                            : Final.Destination.4.2009.BluRay.1080p.x265.10bit.DDP5.1-MiniHD.mkv
  5. Format                                   : Matroska
  6. Format version                           : Version 4
  7. File size                                : 6.43 GiB
  8. Duration                                 : 1 h 21 min
  9. Overall bit rate                         : 11.2 Mb/s
  10. Movie name                               : Final.Destination.4.2009.BluRay.1080p.x265.10bit.DDP5.1.MNHD-FRDS
  11. Encoded date                             : UTC 2022-06-09 06:53:48
  12. Writing application                      : mkvmerge v66.0.0 ('Josie') 64-bit
  13. Writing library                          : libebml v1.4.2 + libmatroska v1.6.4
  14. Video
  15. ID                                       : 1
  16. Format                                   : HEVC
  17. Format/Info                              : High Efficiency Video Coding
  18. Format profile                           : Main 10@L5.1@High
  19. Codec ID                                 : V_MPEGH/ISO/HEVC
  20. Duration                                 : 1 h 21 min
  21. Bit rate                                 : 9 123 kb/s
  22. Width                                    : 1 912 pixels
  23. Height                                   : 798 pixels
  24. Display aspect ratio                     : 2.40:1
  25. Frame rate mode                          : Constant
  26. Frame rate                               : 23.976 (24000/1001/53354) FPS
  27. Color space                              : YUV
  28. Chroma subsampling                       : 4:2:0
  29. Bit depth                                : 10 bits
  30. Bits/(Pixel*Frame)                       : 0.249
  31. Stream size                              : 5.21 GiB (81%)
  32. Writing library                          : x265 3.5+29-3415705dd:[Windows][MSVC 1930][64 bit] 10bit
  33. Encoding settings                        : cpuid=533541111039 / frame-threads=5 / numa-pools=32 / wpp / pmode / no-pme / no-psnr / no-ssim / log-level=2 / input-csp=1 / input-res=1912x798 / interlace=0 / total-frames=117662 / level-idc=0 / high-tier=1 / uhd-bd=0 / ref=6 / no-allow-non-conformance / no-repeat-headers / annexb / no-aud / no-eob / no-eos / no-hrd / info / hash=0 / no-temporal-layers / no-open-gop / min-keyint=1 / keyint=250 / gop-lookahead=0 / bframes=8 / b-adapt=2 / b-pyramid / bframe-bias=0 / rc-lookahead=100 / lookahead-slices=0 / NTMzNTQ=uuDQuD2mJt9fsCf / scenecut=40 / no-hist-scenecut / radl=0 / no-splice / no-intra-refresh / ctu=32 / min-cu-size=8 / no-rect / no-amp / max-tu-size=32 / tu-inter-depth=4 / tu-intra-depth=4 / limit-tu=0 / rdoq-level=2 / dynamic-rd=0.00 / no-ssim-rd / signhide / no-tskip / nr-intra=0 / nr-inter=0 / no-constrained-intra / no-strong-intra-smoothing / max-merge=5 / limit-refs=0 / no-limit-modes / me=3 / subme=7 / merange=57 / temporal-mvp / no-frame-dup / no-hme / weightp / weightb / no-analyze-src-pics / deblock=-3:-3 / no-sao / no-sao-non-deblock / rd=4 / selective-sao=0 / no-early-skip / no-rskip / no-fast-intra / no-tskip-fast / no-cu-lossless / b-intra / no-splitrd-skip / rdpenalty=0 / psy-rd=1.50 / psy-rdoq=1.00 / no-rd-refine / no-lossless / cbqpoffs=-2 / crqpoffs=-2 / rc=crf / crf=21.1 / qcomp=0.65 / qpstep=4 / stats-write=0 / stats-read=0 / vbv-maxrate=160000 / vbv-bufsize=160000 / vbv-init=0.9 / min-vbv-fullness=50.0 / max-vbv-fullness=80.0 / crf-max=0.0 / crf-min=0.0 / ipratio=1.30 / pbratio=1.20 / aq-mode=1 / aq-strength=1.00 / no-cutree / zone-count=0 / no-strict-cbr / qg-size=8 / no-rc-grain / qpmax=69 / qpmin=0 / no-const-vbv / sar=0 / overscan=0 / videoformat=5 / range=0 / colorprim=1 / transfer=1 / colormatrix=1 / chromaloc=0 / display-window=0 / cll=0,0 / min-luma=0 / max-luma=1023 / log2-max-poc-lsb=8 / vui-timing-info / vui-hrd-info / slices=1 / no-opt-qp-pps / no-opt-ref-list-length-pps / no-multi-pass-opt-rps / scenecut-bias=0.05 / hist-threshold=0.03 / no-opt-cu-delta-qp / no-aq-motion / no-hdr10 / no-hdr10-opt / no-dhdr10-opt / no-idr-recovery-sei / analysis-reuse-level=0 / analysis-save-reuse-level=0 / analysis-load-reuse-level=0 / scale-factor=0 / refine-intra=0 / refine-inter=0 / refine-mv=1 / refine-ctu-distortion=0 / no-limit-sao / ctu-info=0 / no-lowpass-dct / refine-analysis-type=0 / copy-pic=1 / max-ausize-factor=1.0 / no-dynamic-refine / no-single-sei / no-hevc-aq / no-svt / no-field / qp-adaptation-range=1.00 / scenecut-aware-qp=0conformance-window-offsets / right=0 / bottom=0 / NTMzNTQ= / decoder-max-rate=0 / no-vbv-live-multi-pass
  34. Default                                  : Yes
  35. Forced                                   : No
  36. Color range                              : Limited
  37. Color primaries                          : BT.709
  38. Transfer characteristics                 : BT.709
  39. Matrix coefficients                      : BT.709
  40. Audio #1
  41. ID                                       : 2
  42. Format                                   : E-AC-3
  43. Format/Info                              : Enhanced AC-3
  44. Commercial name                          : Dolby Digital Plus
  45. Codec ID                                 : A_EAC3
  46. Duration                                 : 1 h 21 min
  47. Bit rate mode                            : Constant
  48. Bit rate                                 : 1 024 kb/s
  49. Channel(s)                               : 6 channels
  50. Channel layout                           : L R C LFE Ls Rs
  51. Sampling rate                            : 48.0 kHz
  52. Frame rate                               : 31.250 FPS (1536 SPF)
  53. Compression mode                         : Lossy
  54. Stream size                              : 599 MiB (9%)
  55. Title                                    : English
  56. Language                                 : English
  57. Service kind                             : Complete Main
  58. Default                                  : Yes
  59. Forced                                   : No
  60. Audio #2
  61. ID                                       : 3
  62. Format                                   : E-AC-3
  63. Format/Info                              : Enhanced AC-3
  64. Commercial name                          : Dolby Digital Plus
  65. Codec ID                                 : A_EAC3
  66. Duration                                 : 1 h 21 min
  67. Bit rate mode                            : Constant
  68. Bit rate                                 : 1 024 kb/s
  69. Channel(s)                               : 6 channels
  70. Channel layout                           : L R C LFE Ls Rs
  71. Sampling rate                            : 48.0 kHz
  72. Frame rate                               : 31.250 FPS (1536 SPF)
  73. Compression mode                         : Lossy
  74. Stream size                              : 599 MiB (9%)
  75. Title                                    : 东影上译国配
  76. Language                                 : Chinese
  77. Service kind                             : Complete Main
  78. Default                                  : No
  79. Forced                                   : No
  80. Text #1
  81. ID                                       : 4
  82. Format                                   : PGS
  83. Muxing mode                              : zlib
  84. Codec ID                                 : S_HDMV/PGS
  85. Codec ID/Info                            : Picture based subtitle format used on BDs/HD-DVDs
  86. Duration                                 : 1 h 15 min
  87. Bit rate                                 : 32.1 kb/s
  88. Count of elements                        : 1599
  89. Stream size                              : 17.3 MiB (0%)
  90. Title                                    : CHS&ENG
  91. Language                                 : Chinese
  92. Default                                  : Yes
  93. Forced                                   : No
  94. Text #2
  95. ID                                       : 5
  96. Format                                   : PGS
  97. Muxing mode                              : zlib
  98. Codec ID                                 : S_HDMV/PGS
  99. Codec ID/Info                            : Picture based subtitle format used on BDs/HD-DVDs
  100. Duration                                 : 1 h 16 min
  101. Bit rate                                 : 54.9 kb/s
  102. Count of elements                        : 3263
  103. Stream size                              : 29.9 MiB (0%)
  104. Title                                    : CHS.国配特效
  105. Language                                 : Chinese
  106. Default                                  : No
  107. Forced                                   : No
  108. Text #3
  109. ID                                       : 6
  110. Format                                   : PGS
  111. Muxing mode                              : zlib
  112. Codec ID                                 : S_HDMV/PGS
  113. Codec ID/Info                            : Picture based subtitle format used on BDs/HD-DVDs
  114. Duration                                 : 1 h 15 min
  115. Bit rate                                 : 32.6 kb/s
  116. Count of elements                        : 1599
  117. Stream size                              : 17.6 MiB (0%)
  118. Title                                    : CHT&ENG
  119. Language                                 : Chinese
  120. Default                                  : No
  121. Forced                                   : No
  122. Text #4
  123. ID                                       : 7
  124. Format                                   : PGS
  125. Muxing mode                              : zlib
  126. Codec ID                                 : S_HDMV/PGS
  127. Codec ID/Info                            : Picture based subtitle format used on BDs/HD-DVDs
  128. Duration                                 : 1 h 15 min
  129. Bit rate                                 : 19.7 kb/s
  130. Count of elements                        : 1599
  131. Stream size                              : 10.6 MiB (0%)
  132. Title                                    : CHT
  133. Language                                 : Chinese
  134. Default                                  : No
  135. Forced                                   : No
  136. Text #5
  137. ID                                       : 8
  138. ID in the original source medium         : 4608 (0x1200)
  139. Format                                   : PGS
  140. Muxing mode                              : zlib
  141. Codec ID                                 : S_HDMV/PGS
  142. Codec ID/Info                            : Picture based subtitle format used on BDs/HD-DVDs
  143. Duration                                 : 1 h 21 min
  144. Bit rate                                 : 28.9 kb/s
  145. Count of elements                        : 1936
  146. Stream size                              : 16.8 MiB (0%)
  147. Title                                    : ENG
  148. Language                                 : English
  149. Default                                  : No
  150. Forced                                   : No
  151. Original source medium                   : Blu-ray
  152. Menu
  153. 00:00:00.000                             : en:Chapter 01
  154. 00:04:00.323                             : en:Chapter 02
  155. 00:06:42.192                             : en:Chapter 03
  156. 00:11:29.230                             : en:Chapter 04
  157. 00:12:57.650                             : en:Chapter 05
  158. 00:17:40.349                             : en:Chapter 06
  159. 00:21:32.833                             : en:Chapter 07
  160. 00:23:36.123                             : en:Chapter 08
  161. 00:27:00.492                             : en:Chapter 09
  162. 00:29:12.416                             : en:Chapter 10
  163. 00:32:49.174                             : en:Chapter 11
  164. 00:35:44.684                             : en:Chapter 12
  165. 00:39:15.018                             : en:Chapter 13
  166. 00:43:37.239                             : en:Chapter 14
  167. 00:47:01.068                             : en:Chapter 15
  168. 00:50:05.085                             : en:Chapter 16
  169. 00:55:22.485                             : en:Chapter 17
  170. 00:59:46.291                             : en:Chapter 18
  171. 01:01:22.887                             : en:Chapter 19
  172. 01:05:41.686                             : en:Chapter 20
  173. 01:08:18.135                             : en:Chapter 21
  174. 01:09:55.983                             : en:Chapter 22
  175. 01:13:34.118                             : en:Chapter 23
  176. 01:16:35.046                             : en:Chapter 24





此处一般会放置磁力链或种子下载链接,不过此链接需要注册会员才能看到,点击“立即注册”
磁力链下载【下载链接仅对注册会员开放,登陆后可见】
BT9527电影天堂 1、BT9527电影天堂提供的BT文件均来源于互联网抓取,只供网友学习交流、技术提升使用。
2、我们遵守BitTorrent点对点协议原则,任何版权问题请联系原资源发布商,我们不处理任何版权纠纷,谢谢!如有争议请联系邮箱:BT9527#hotmail.com(#换成@)
3、如果您发现某页面或地址有错误,请联系站长邮箱BT9527#hotmail.com(#换成@),我们会尽快处理。您的热心是对BT9527电影天堂最大的支持。
4、本站建议去正规影院观看电影以支持电影行业发展。
最新回复 (0)

你可以在 登录 or 注册 后,对此帖发表评论!

返回
发新帖