死神来了3[国英多音轨/简繁英特效字幕].Final.Destination.3.2006.BluRay.1080p.x265.10bit.DDP5.1-MiniHD 8.48GB

版主小s 3月前 150

✔资源类型:暂未分类   ✔电影年份:2006   ✔电影地区:欧美   ✔电影分类:惊悚

◎译  名 死神来了3 / 死神再3来了(港) / 绝命终结站3(台)
◎片  名 Final Destination 3
◎年  代 2006
◎产  地 美国
◎类  别 惊悚 / 恐怖
◎语  言 英语
◎上映日期 2006-02-10(美国)
◎IMDb链接 https://www.imdb.com/title/tt0414982/
◎豆瓣评分 7.2/10 (143102人评价)
◎豆瓣链接 https://movie.douban.com/subject/1436870/
◎片  长 93 分钟
◎导  演 黄毅瑜 James Wong (id:1301190)
◎编  剧 格伦·摩根 Glen Morgan (id:1292490)
       黄毅瑜 James Wong (id:1301190)
       杰弗里·雷迪克 Jeffrey Reddick (id:1436457)
◎演  员 玛丽·伊丽莎白·温斯特德 Mary Elizabeth Winstead (id:1041018)
       瑞恩·莫里曼 Ryan Merriman (id:1000185)
       克里斯·勒姆彻 Kris Lemche (id:1315648)
       亚莉克兹·约翰逊 Alexz Johnson (id:1040692)
       萨姆·伊斯顿 Sam Easton (id:1194786)
       杰西·莫斯 Jesse Moss (id:1045130)
       吉娜·赫尔顿 Gina Holden (id:1031948)
       特夏斯·巴特尔 Texas Battle (id:1212991)
       切兰·西蒙斯 Chelan Simmons (id:1041175)
       克瑞斯塔尔·洛维 Crystal Lowe (id:1116878)
       阿曼达·克鲁 Amanda Crew (id:1016614)
       马美琪 Maggie Ma (id:1009801)
       派崔克·盖勒 Patrick Gallagher (id:1031954)
       达斯汀·米利甘 Dustin Milligan (id:1022679)
       哈里斯·艾伦 Harris Allan (id:1060784)
       柯瑞·蒙特斯 Cory Monteith (id:1044703)
       科尔比·约翰森 Colby Johannson (id:1170574)
       雅各布·鲁普 Jacob Rupp (id:1296333)
       吉姆·谢尔德 Jim Shield (id:1297460)
       托尼·托德 Tony Todd (id:1036498)
       内尔斯·莱纳森 Nels Lennarson (id:1119612)
       托比·艾默里奇 Toby Emmerich (id:1005136)
       格伦·摩根 Glen Morgan (id:1292490)
       华伦·仔德 Warren Zide (id:1435379)
       艾尔特·舍弗尔 Art Schaeffer (id:1296827)
       克雷格·佩里 Craig Perry (id:1435380)
       黄毅瑜 James Wong (id:1301190)
       希拉·哈纳汉 Sheila Hanahan (id:1023650)
       雪莉·沃克 Shirley Walker (id:1000946)
       罗伯特·麦克拉克兰 Robert McLachlan (id:1291669)
       约翰·帕帕席德拉 John Papsidera (id:1293922)
       Lance Webb Lance Webb (id:1300550)
       Juliana Vit Juliana Vit (id:1153958)
       Felix Fox Felix Fox (id:1284060)
       J.P. Mass J.P. Mass (id:1291233)
       Joann Fowler Joann Fowler (id:1284065)
       Pearl Louie Pearl Louie (id:1290340)
       Toby Lindala Toby Lindala (id:1290072)
       沃伦·汉拿 Warren Hanna (id:1285976)
       格伦·摩根 Glen Morgan (id:1292490)
       Roger Scott Russell Roger Scott Russell (id:1055874)
       Eddy Hardy Eddy Hardy (id:1099652)
       汤米·陈 Tommy Tran (id:1299471)
       Michel Frenette Michel Frenette (id:1284175)
       克里斯·戴尔·康特 Chris Del Conte (id:1282169)
        Erika Bach (id:1259271)
       安德鲁·罗伯茨 Andrew Roberts (id:1223036)
       Charles Desilets Charles Desilets (id:1213952)
       Philippe Roberge Philippe Roberge (id:1202763)
       拉杜·文泰拉 Radu Vintila (id:1190064)
       Sébastien Gagné Sébastien Gagné (id:1188477)
       Frederic Fortin Frederic Fortin (id:1176261)
       Christian Emond Christian Emond (id:1175328)
       Eugene P. Rizzardi Eugene P. Rizzardi (id:1295729)
       塔米·萨顿 Tammy Sutton (id:1298686)
       菲·陈 Phi Tran (id:1309487)
       埃里克·布鲁威勒 Erik Bruhwiler (id:1308923)
       班诺特·吉拉尔 Benoit Girard (id:1308287)
       Patrick Martel Patrick Martel (id:1307400)
       Arnaud Brisebois Arnaud Brisebois (id:1307398)
       杰罗姆·莫林 Jerome Morin (id:1307280)
       Christophe Pacaud Christophe Pacaud (id:1305395)
       克劳德·洛松 Claude Lauzon (id:1305380)
       Sylvain Allard Sylvain Allard (id:1305345)
       Andrea Paolino Andrea Paolino (id:1305328)
       艾丽尔·维拉斯科-肖 Ariel Velasco-Shaw (id:1299950)
       Justin Mitchell Justin Mitchell (id:1292234)
       Claude Precourt Claude Precourt (id:1133686)
       妮科尔·雷克利夫 Nicole Ratcliffe (id:1008601)
       Frank D'Iorio Frank D'Iorio (id:1075960)
       迈克尔·乔伊斯 Michael Joyce (id:1008348)
       Eric Gervais-Despres Eric Gervais-Despres (id:1093509)
       D·瓦尔特·卡梅伦 D. Walt Cameron (id:1013305)
       Christopher Johnson Christopher Johnson (id:1105844)
       晏·拉利伯特 Yann Laliberte (id:1110900)
       Shervin Shoghian Shervin Shoghian (id:1305826)
       迈克尔·科瓦尔斯基 Michael Kowalski (id:1039757)

◎简  介
  高中生Wendy(Mary Elizabeth Winstead饰)与友人一起去游乐场庆祝毕业,大家玩得十分痛快。游乐场内灯火璀璨,却诡异处处。在坐上过山车的座椅时,Wendy忽然看到了怪异现象,心生恐怖,男友Jason安慰她不过是幻觉。过山车开动起来,可是在半空中突然出轨,大家倒挂空中。Wendy眼看着朋友一个一个坠落死亡,自己也不能幸免于难。                                    
                                被同学的吆喝喊醒的Wendy惊觉刚才不过是幻觉,但是她忧心忡忡,力阻大家离开过山车。虽然遭到大家的嘲笑,但是事后证明这是正确的选择。过山车就如同Wendy看到的一样出事了。                                    
                                然而,逃过一劫的少男少女们并没有脱离死神的魔掌。他们接二连三地死去。Wendy发现这一切都与在游乐场的一张照片有关。为了生存,她开始了与死神的搏斗。
  1. ##### MediaInfo ######
  2. General
  3. Unique ID                                : 280759862088577724661521615922791117371 (0xD33861EF4F8D4B5235504FD4FDDAF23B)
  4. Complete name                            : Final.Destination.3.2006.BluRay.1080p.x265.10bit.DDP5.1-MiniHD.mkv
  5. Format                                   : Matroska
  6. Format version                           : Version 4
  7. File size                                : 8.48 GiB
  8. Duration                                 : 1 h 32 min
  9. Overall bit rate                         : 13.1 Mb/s
  10. Movie name                               : Final Destination 3
  11. Encoded date                             : UTC 2022-06-09 06:41:25
  12. Writing application                      : mkvmerge v66.0.0 ('Josie') 64-bit
  13. Writing library                          : libebml v1.4.2 + libmatroska v1.6.4
  14. Cover                                    : Yes
  15. Attachments                              : cover.jpg
  16. Video
  17. ID                                       : 1
  18. Format                                   : HEVC
  19. Format/Info                              : High Efficiency Video Coding
  20. Format profile                           : Main 10@L5.1@High
  21. Codec ID                                 : V_MPEGH/ISO/HEVC
  22. Duration                                 : 1 h 32 min
  23. Bit rate                                 : 10.9 Mb/s
  24. Width                                    : 1 920 pixels
  25. Height                                   : 814 pixels
  26. Display aspect ratio                     : 2.35:1
  27. Frame rate mode                          : Constant
  28. Frame rate                               : 23.976 (24000/1001/53354) FPS
  29. Color space                              : YUV
  30. Chroma subsampling                       : 4:2:0
  31. Bit depth                                : 10 bits
  32. Bits/(Pixel*Frame)                       : 0.292
  33. Stream size                              : 7.09 GiB (84%)
  34. Writing library                          : x265 3.5+29-3415705dd:[Windows][MSVC 1930][64 bit] 10bit
  35. Encoding settings                        : cpuid=533541111039 / frame-threads=4 / numa-pools=16 / wpp / pmode / no-pme / no-psnr / no-ssim / log-level=2 / input-csp=1 / input-res=1920x814 / interlace=0 / total-frames=133563 / level-idc=0 / high-tier=1 / uhd-bd=0 / ref=6 / no-allow-non-conformance / no-repeat-headers / annexb / no-aud / no-eob / no-eos / no-hrd / info / hash=0 / no-temporal-layers / no-open-gop / min-keyint=1 / keyint=250 / gop-lookahead=0 / bframes=8 / b-adapt=2 / b-pyramid / bframe-bias=0 / rc-lookahead=100 / lookahead-slices=0 / NTMzNTQ=uuDQuD2mJt9fsCf / scenecut=40 / no-hist-scenecut / radl=0 / no-splice / no-intra-refresh / ctu=32 / min-cu-size=8 / no-rect / no-amp / max-tu-size=32 / tu-inter-depth=4 / tu-intra-depth=4 / limit-tu=0 / rdoq-level=2 / dynamic-rd=0.00 / no-ssim-rd / signhide / tskip / nr-intra=0 / nr-inter=0 / no-constrained-intra / no-strong-intra-smoothing / max-merge=5 / limit-refs=0 / no-limit-modes / me=3 / subme=7 / merange=57 / temporal-mvp / no-frame-dup / no-hme / weightp / weightb / no-analyze-src-pics / deblock=-3:-3 / no-sao / no-sao-non-deblock / rd=4 / selective-sao=0 / no-early-skip / no-rskip / no-fast-intra / no-tskip-fast / no-cu-lossless / b-intra / no-splitrd-skip / rdpenalty=0 / psy-rd=1.50 / psy-rdoq=1.00 / no-rd-refine / no-lossless / cbqpoffs=-2 / crqpoffs=-2 / rc=crf / crf=20.0 / qcomp=0.65 / qpstep=4 / stats-write=0 / stats-read=0 / vbv-maxrate=160000 / vbv-bufsize=160000 / vbv-init=0.9 / min-vbv-fullness=50.0 / max-vbv-fullness=80.0 / crf-max=0.0 / crf-min=0.0 / ipratio=1.30 / pbratio=1.20 / aq-mode=1 / aq-strength=1.00 / no-cutree / zone-count=0 / no-strict-cbr / qg-size=8 / no-rc-grain / qpmax=69 / qpmin=0 / no-const-vbv / sar=0 / overscan=0 / videoformat=5 / range=0 / colorprim=1 / transfer=1 / colormatrix=1 / chromaloc=0 / display-window=0 / cll=0,0 / min-luma=0 / max-luma=1023 / log2-max-poc-lsb=8 / vui-timing-info / vui-hrd-info / slices=1 / no-opt-qp-pps / no-opt-ref-list-length-pps / no-multi-pass-opt-rps / scenecut-bias=0.05 / hist-threshold=0.03 / no-opt-cu-delta-qp / no-aq-motion / no-hdr10 / no-hdr10-opt / no-dhdr10-opt / no-idr-recovery-sei / analysis-reuse-level=0 / analysis-save-reuse-level=0 / analysis-load-reuse-level=0 / scale-factor=0 / refine-intra=0 / refine-inter=0 / refine-mv=1 / refine-ctu-distortion=0 / no-limit-sao / ctu-info=0 / no-lowpass-dct / refine-analysis-type=0 / copy-pic=1 / max-ausize-factor=1.0 / no-dynamic-refine / no-single-sei / no-hevc-aq / no-svt / no-field / qp-adaptation-range=1.00 / scenecut-aware-qp=0conformance-window-offsets / right=0 / bottom=0 / NTMzNTQ= / decoder-max-rate=0 / no-vbv-live-multi-pass
  36. Default                                  : Yes
  37. Forced                                   : No
  38. Color range                              : Limited
  39. Color primaries                          : BT.709
  40. Transfer characteristics                 : BT.709
  41. Matrix coefficients                      : BT.709
  42. Audio #1
  43. ID                                       : 2
  44. Format                                   : E-AC-3
  45. Format/Info                              : Enhanced AC-3
  46. Commercial name                          : Dolby Digital Plus
  47. Codec ID                                 : A_EAC3
  48. Duration                                 : 1 h 32 min
  49. Bit rate mode                            : Constant
  50. Bit rate                                 : 1 024 kb/s
  51. Channel(s)                               : 6 channels
  52. Channel layout                           : L R C LFE Ls Rs
  53. Sampling rate                            : 48.0 kHz
  54. Frame rate                               : 31.250 FPS (1536 SPF)
  55. Compression mode                         : Lossy
  56. Stream size                              : 680 MiB (8%)
  57. Title                                    : English
  58. Language                                 : English
  59. Service kind                             : Complete Main
  60. Default                                  : Yes
  61. Forced                                   : No
  62. Audio #2
  63. ID                                       : 3
  64. Format                                   : E-AC-3
  65. Format/Info                              : Enhanced AC-3
  66. Commercial name                          : Dolby Digital Plus
  67. Codec ID                                 : A_EAC3
  68. Duration                                 : 1 h 32 min
  69. Bit rate mode                            : Constant
  70. Bit rate                                 : 1 024 kb/s
  71. Channel(s)                               : 6 channels
  72. Channel layout                           : L R C LFE Ls Rs
  73. Sampling rate                            : 48.0 kHz
  74. Frame rate                               : 31.250 FPS (1536 SPF)
  75. Compression mode                         : Lossy
  76. Stream size                              : 680 MiB (8%)
  77. Title                                    : 东影上译国配
  78. Language                                 : Chinese
  79. Service kind                             : Complete Main
  80. Default                                  : No
  81. Forced                                   : No
  82. Text #1
  83. ID                                       : 4
  84. Format                                   : PGS
  85. Muxing mode                              : zlib
  86. Codec ID                                 : S_HDMV/PGS
  87. Codec ID/Info                            : Picture based subtitle format used on BDs/HD-DVDs
  88. Duration                                 : 1 h 26 min
  89. Bit rate                                 : 39.3 kb/s
  90. Count of elements                        : 1607
  91. Stream size                              : 24.3 MiB (0%)
  92. Title                                    : CHS&ENG
  93. Language                                 : Chinese
  94. Default                                  : Yes
  95. Forced                                   : No
  96. Text #2
  97. ID                                       : 5
  98. Format                                   : PGS
  99. Muxing mode                              : zlib
  100. Codec ID                                 : S_HDMV/PGS
  101. Codec ID/Info                            : Picture based subtitle format used on BDs/HD-DVDs
  102. Duration                                 : 1 h 26 min
  103. Bit rate                                 : 72.9 kb/s
  104. Count of elements                        : 3813
  105. Stream size                              : 45.3 MiB (1%)
  106. Title                                    : CHS.国配特效
  107. Language                                 : Chinese
  108. Default                                  : No
  109. Forced                                   : No
  110. Text #3
  111. ID                                       : 6
  112. Format                                   : PGS
  113. Muxing mode                              : zlib
  114. Codec ID                                 : S_HDMV/PGS
  115. Codec ID/Info                            : Picture based subtitle format used on BDs/HD-DVDs
  116. Duration                                 : 1 h 26 min
  117. Bit rate                                 : 40.0 kb/s
  118. Count of elements                        : 1607
  119. Stream size                              : 24.7 MiB (0%)
  120. Title                                    : CHT&ENG
  121. Language                                 : Chinese
  122. Default                                  : No
  123. Forced                                   : No
  124. Text #4
  125. ID                                       : 7
  126. Format                                   : PGS
  127. Muxing mode                              : zlib
  128. Codec ID                                 : S_HDMV/PGS
  129. Codec ID/Info                            : Picture based subtitle format used on BDs/HD-DVDs
  130. Duration                                 : 1 h 26 min
  131. Bit rate                                 : 23.8 kb/s
  132. Count of elements                        : 1606
  133. Stream size                              : 14.7 MiB (0%)
  134. Title                                    : CHT
  135. Language                                 : Chinese
  136. Default                                  : No
  137. Forced                                   : No
  138. Text #5
  139. ID                                       : 8
  140. ID in the original source medium         : 4608 (0x1200)
  141. Format                                   : PGS
  142. Muxing mode                              : zlib
  143. Codec ID                                 : S_HDMV/PGS
  144. Codec ID/Info                            : Picture based subtitle format used on BDs/HD-DVDs
  145. Duration                                 : 1 h 32 min
  146. Bit rate                                 : 35.5 kb/s
  147. Count of elements                        : 2444
  148. Stream size                              : 23.4 MiB (0%)
  149. Title                                    : ENG
  150. Language                                 : English
  151. Default                                  : No
  152. Forced                                   : No
  153. Original source medium                   : Blu-ray
  154. Menu
  155. 00:00:00.000                             : en:Chapter 01
  156. 00:02:35.572                             : en:Chapter 02
  157. 00:04:02.867                             : en:Chapter 03
  158. 00:09:22.687                             : en:Chapter 04
  159. 00:14:33.706                             : en:Chapter 05
  160. 00:21:27.286                             : en:Chapter 06
  161. 00:26:22.414                             : en:Chapter 07
  162. 00:38:11.122                             : en:Chapter 08
  163. 00:44:43.681                             : en:Chapter 09
  164. 00:49:45.983                             : en:Chapter 10
  165. 00:52:33.775                             : en:Chapter 11
  166. 00:55:42.339                             : en:Chapter 12
  167. 01:03:51.452                             : en:Chapter 13
  168. 01:06:13.177                             : en:Chapter 14
  169. 01:11:16.981                             : en:Chapter 15
  170. 01:17:54.294                             : en:Chapter 16
  171. 01:19:58.001                             : en:Chapter 17
  172. 01:27:08.848                             : en:Chapter 18



此处一般会放置磁力链或种子下载链接,不过此链接需要注册会员才能看到,点击“立即注册”
磁力链下载【下载链接仅对注册会员开放,登陆后可见】
BT9527电影天堂 1、BT9527电影天堂提供的BT文件均来源于互联网抓取,只供网友学习交流、技术提升使用。
2、我们遵守BitTorrent点对点协议原则,任何版权问题请联系原资源发布商,我们不处理任何版权纠纷,谢谢!如有争议请联系邮箱:BT9527#hotmail.com(#换成@)
3、如果您发现某页面或地址有错误,请联系站长邮箱BT9527#hotmail.com(#换成@),我们会尽快处理。您的热心是对BT9527电影天堂最大的支持。
4、本站建议去正规影院观看电影以支持电影行业发展。
最新回复 (0)

你可以在 登录 or 注册 后,对此帖发表评论!

返回
发新帖