死神来了[国英多音轨/简繁英特效字幕].Final.Destination.2000.BluRay.1080p.x265.10bit.DDP5.1-MiniHD 8.17GB

版主小s 3月前 201

✔资源类型:暂未分类   ✔电影年份:更 早   ✔电影地区:欧美   ✔电影分类:惊悚

◎译  名 死神来了 / 绝命终结站(台) / 终点
◎片  名 Final Destination
◎年  代 2000
◎产  地 美国 / 加拿大
◎类  别 惊悚 / 恐怖
◎语  言 英语 / 法语
◎上映日期 2000-03-17(美国)
◎IMDb链接 https://www.imdb.com/title/tt0195714/
◎豆瓣评分 7.9/10 (304311人评价)
◎豆瓣链接 https://movie.douban.com/subject/1300300/
◎片  长 98 分钟
◎导  演 黄毅瑜 James Wong (id:1301190)
◎编  剧 格伦·摩根 Glen Morgan (id:1292490)
       黄毅瑜 James Wong (id:1301190)
       杰弗里·雷迪克 Jeffrey Reddick (id:1436457)
◎演  员 戴文·萨瓦 Devon Sawa (id:1047960)
       艾丽·拉特 Ali Larter (id:1018978)
       科尔·史密斯 Kerr Smith (id:1031945)
       克里森·克拉克 Kristen Cloke (id:1049871)
       丹尼尔·洛巴克 Daniel Roebuck (id:1032119)
       罗杰·格午埃文·史密斯 Roger Guenveur Smith (id:1159598)
       查德·多纳拉 Chad Donella (id:1089653)
       西恩·威廉·斯科特 Seann William Scott (id:1027153)
       托尼·托德 Tony Todd (id:1036498)
       阿曼达·达特曼 Amanda Detmer (id:1027337)
       布兰登·费尔 Brendan Fehr (id:1040563)
       克里斯汀·查特莱恩 Christine Chatelain (id:1314779)
       芭芭拉·泰森 Barbara Tyson (id:1152942)
       丽莎·玛丽·卡鲁克 Lisa Marie Caruk (id:1400140)
       格伦·摩根 Glen Morgan (id:1292490)
       华伦·仔德 Warren Zide (id:1435379)
       克雷格·佩里 Craig Perry (id:1435380)
       艾尔特·舍弗尔 Art Schaeffer (id:1296827)
       罗伯特·麦克拉克兰 Robert McLachlan (id:1291669)
       约翰·帕帕席德拉 John Papsidera (id:1293922)
       乔里·伍德曼 Jori Woodman (id:1301243)
       基督.斯坦利 Christ Stanley (id:1298259)
       Geoff Redknap Geoff Redknap (id:1295362)
       艾丽尔·维拉斯科-肖 Ariel Velasco-Shaw (id:1299950)
       Ken Wilder Ken Wilder (id:1300913)
       雷·麦金太尔 Ray McIntyre Jr. (id:1291625)
       吉姆·戈尔曼 Jim Gorman (id:1285203)
       马克·丹菲特 Mark Dornfeld (id:1282612)

◎简  介
  剧情惊险恐怖,环环相扣。高中生艾利克斯-伯朗宁(德文?萨瓦 Devon Sawa  饰)与7名同班同学登机前往巴黎。起飞前,他突然预感到恐怖的一幕:飞机将会在空中爆炸。艾利克斯非常惊恐,大喊飞机即将出事,大家要立刻下机,结果混乱中他和其余6名乘客被机组人员赶了出来。但是,被艾利克斯不幸言中,飞机在半空中爆炸,全部人员罹难。                                    
                                所有下了机的人都在庆幸大难不死,却不知死神还是不愿放过他们。接下来,等待他们的将会是更恐怖的死亡方式和更难逃脱的死亡命运。而艾利克斯又能从各人的死亡顺序里面发现什么秘密,在死神的魔爪中逃出生天?
  1. ##### MediaInfo ######
  2. General
  3. Unique ID                                : 276791086366242488664557658807620140255 (0xD03C062F2AEE72E6AADF1C730C70FCDF)
  4. Complete name                            : Final.Destination.2000.BluRay.1080p.x265.10bit.DDP5.1-MiniHD.mkv
  5. Format                                   : Matroska
  6. Format version                           : Version 4
  7. File size                                : 8.17 GiB
  8. Duration                                 : 1 h 37 min
  9. Overall bit rate                         : 12.0 Mb/s
  10. Movie name                               : Final.Destination.2000.BluRay.1080p.x265.10bit.DDP5.1.MNHD-FRDS
  11. Encoded date                             : UTC 2022-06-10 11:07:04
  12. Writing application                      : mkvmerge v66.0.0 ('Josie') 64-bit
  13. Writing library                          : libebml v1.4.2 + libmatroska v1.6.4
  14. Cover                                    : Yes
  15. Attachments                              : cover.jpg
  16. Video
  17. ID                                       : 1
  18. Format                                   : HEVC
  19. Format/Info                              : High Efficiency Video Coding
  20. Format profile                           : Main 10@L5.1@High
  21. Codec ID                                 : V_MPEGH/ISO/HEVC
  22. Duration                                 : 1 h 37 min
  23. Bit rate                                 : 10.4 Mb/s
  24. Width                                    : 1 920 pixels
  25. Height                                   : 1 080 pixels
  26. Display aspect ratio                     : 16:9
  27. Frame rate mode                          : Constant
  28. Frame rate                               : 23.976 (24000/1001/53354) FPS
  29. Color space                              : YUV
  30. Chroma subsampling                       : 4:2:0
  31. Bit depth                                : 10 bits
  32. Bits/(Pixel*Frame)                       : 0.209
  33. Stream size                              : 7.09 GiB (87%)
  34. Writing library                          : x265 3.5+29-3415705dd:[Windows][MSVC 1930][64 bit] 10bit
  35. Encoding settings                        : cpuid=533541111039 / frame-threads=5 / numa-pools=32 / wpp / pmode / no-pme / no-psnr / no-ssim / log-level=2 / input-csp=1 / input-res=1920x1080 / interlace=0 / total-frames=140401 / level-idc=0 / high-tier=1 / uhd-bd=0 / ref=6 / no-allow-non-conformance / no-repeat-headers / annexb / no-aud / no-eob / no-eos / no-hrd / info / hash=0 / no-temporal-layers / no-open-gop / min-keyint=1 / keyint=250 / gop-lookahead=0 / bframes=8 / b-adapt=2 / b-pyramid / bframe-bias=0 / rc-lookahead=100 / lookahead-slices=0 / NTMzNTQ=uuDQuD2mJt9fsCf / scenecut=40 / no-hist-scenecut / radl=0 / no-splice / no-intra-refresh / ctu=32 / min-cu-size=8 / no-rect / no-amp / max-tu-size=32 / tu-inter-depth=4 / tu-intra-depth=4 / limit-tu=4 / rdoq-level=2 / dynamic-rd=0.00 / no-ssim-rd / signhide / no-tskip / nr-intra=0 / nr-inter=0 / no-constrained-intra / no-strong-intra-smoothing / max-merge=4 / limit-refs=1 / limit-modes / me=3 / subme=5 / merange=57 / temporal-mvp / no-frame-dup / no-hme / weightp / weightb / no-analyze-src-pics / deblock=-3:-3 / no-sao / no-sao-non-deblock / rd=4 / selective-sao=0 / no-early-skip / no-rskip / no-fast-intra / no-tskip-fast / no-cu-lossless / b-intra / no-splitrd-skip / rdpenalty=0 / psy-rd=1.50 / psy-rdoq=1.00 / no-rd-refine / no-lossless / cbqpoffs=-2 / crqpoffs=-2 / rc=crf / crf=20.5 / qcomp=0.65 / qpstep=4 / stats-write=0 / stats-read=0 / vbv-maxrate=160000 / vbv-bufsize=160000 / vbv-init=0.9 / min-vbv-fullness=50.0 / max-vbv-fullness=80.0 / crf-max=0.0 / crf-min=0.0 / ipratio=1.30 / pbratio=1.20 / aq-mode=1 / aq-strength=1.00 / no-cutree / zone-count=0 / no-strict-cbr / qg-size=8 / no-rc-grain / qpmax=69 / qpmin=0 / no-const-vbv / sar=0 / overscan=0 / videoformat=5 / range=0 / colorprim=1 / transfer=1 / colormatrix=1 / chromaloc=0 / display-window=0 / cll=0,0 / min-luma=0 / max-luma=1023 / log2-max-poc-lsb=8 / vui-timing-info / vui-hrd-info / slices=1 / no-opt-qp-pps / no-opt-ref-list-length-pps / no-multi-pass-opt-rps / scenecut-bias=0.05 / hist-threshold=0.03 / no-opt-cu-delta-qp / no-aq-motion / no-hdr10 / no-hdr10-opt / no-dhdr10-opt / no-idr-recovery-sei / analysis-reuse-level=0 / analysis-save-reuse-level=0 / analysis-load-reuse-level=0 / scale-factor=0 / refine-intra=0 / refine-inter=0 / refine-mv=1 / refine-ctu-distortion=0 / no-limit-sao / ctu-info=0 / no-lowpass-dct / refine-analysis-type=0 / copy-pic=1 / max-ausize-factor=1.0 / no-dynamic-refine / no-single-sei / no-hevc-aq / no-svt / no-field / qp-adaptation-range=1.00 / scenecut-aware-qp=0conformance-window-offsets / right=0 / bottom=0 / NTMzNTQ= / decoder-max-rate=0 / no-vbv-live-multi-pass
  36. Default                                  : Yes
  37. Forced                                   : No
  38. Color range                              : Limited
  39. Color primaries                          : BT.709
  40. Transfer characteristics                 : BT.709
  41. Matrix coefficients                      : BT.709
  42. Audio #1
  43. ID                                       : 2
  44. Format                                   : E-AC-3
  45. Format/Info                              : Enhanced AC-3
  46. Commercial name                          : Dolby Digital Plus
  47. Codec ID                                 : A_EAC3
  48. Duration                                 : 1 h 37 min
  49. Bit rate mode                            : Constant
  50. Bit rate                                 : 1 024 kb/s
  51. Channel(s)                               : 6 channels
  52. Channel layout                           : L R C LFE Ls Rs
  53. Sampling rate                            : 48.0 kHz
  54. Frame rate                               : 31.250 FPS (1536 SPF)
  55. Compression mode                         : Lossy
  56. Stream size                              : 715 MiB (9%)
  57. Title                                    : ENG
  58. Language                                 : English
  59. Service kind                             : Complete Main
  60. Default                                  : Yes
  61. Forced                                   : No
  62. Audio #2
  63. ID                                       : 3
  64. Format                                   : AC-3
  65. Format/Info                              : Audio Coding 3
  66. Commercial name                          : Dolby Digital
  67. Codec ID                                 : A_AC3
  68. Duration                                 : 1 h 37 min
  69. Bit rate mode                            : Constant
  70. Bit rate                                 : 448 kb/s
  71. Channel(s)                               : 6 channels
  72. Channel layout                           : L R C LFE Ls Rs
  73. Sampling rate                            : 48.0 kHz
  74. Frame rate                               : 31.250 FPS (1536 SPF)
  75. Compression mode                         : Lossy
  76. Stream size                              : 313 MiB (4%)
  77. Title                                    : 东影上译国配
  78. Language                                 : Chinese
  79. Service kind                             : Complete Main
  80. Default                                  : No
  81. Forced                                   : No
  82. Text #1
  83. ID                                       : 4
  84. Format                                   : PGS
  85. Muxing mode                              : zlib
  86. Codec ID                                 : S_HDMV/PGS
  87. Codec ID/Info                            : Picture based subtitle format used on BDs/HD-DVDs
  88. Duration                                 : 1 h 30 min
  89. Bit rate                                 : 27.3 kb/s
  90. Count of elements                        : 1303
  91. Stream size                              : 17.7 MiB (0%)
  92. Title                                    : CHS&ENG
  93. Language                                 : Chinese
  94. Default                                  : Yes
  95. Forced                                   : No
  96. Text #2
  97. ID                                       : 5
  98. Format                                   : PGS
  99. Muxing mode                              : zlib
  100. Codec ID                                 : S_HDMV/PGS
  101. Codec ID/Info                            : Picture based subtitle format used on BDs/HD-DVDs
  102. Duration                                 : 1 h 32 min
  103. Bit rate                                 : 144 kb/s
  104. Count of elements                        : 5183
  105. Stream size                              : 94.7 MiB (1%)
  106. Title                                    : CHS.国配特效
  107. Language                                 : Chinese
  108. Default                                  : No
  109. Forced                                   : No
  110. Text #3
  111. ID                                       : 6
  112. Format                                   : PGS
  113. Muxing mode                              : zlib
  114. Codec ID                                 : S_HDMV/PGS
  115. Codec ID/Info                            : Picture based subtitle format used on BDs/HD-DVDs
  116. Duration                                 : 1 h 30 min
  117. Bit rate                                 : 27.8 kb/s
  118. Count of elements                        : 1303
  119. Stream size                              : 18.1 MiB (0%)
  120. Title                                    : CHT&ENG
  121. Language                                 : Chinese
  122. Default                                  : No
  123. Forced                                   : No
  124. Text #4
  125. ID                                       : 7
  126. Format                                   : PGS
  127. Muxing mode                              : zlib
  128. Codec ID                                 : S_HDMV/PGS
  129. Codec ID/Info                            : Picture based subtitle format used on BDs/HD-DVDs
  130. Duration                                 : 1 h 30 min
  131. Bit rate                                 : 15.5 kb/s
  132. Count of elements                        : 1303
  133. Stream size                              : 10.1 MiB (0%)
  134. Title                                    : CHT
  135. Language                                 : Chinese
  136. Default                                  : No
  137. Forced                                   : No
  138. Text #5
  139. ID                                       : 8
  140. ID in the original source medium         : 4608 (0x1200)
  141. Format                                   : PGS
  142. Muxing mode                              : zlib
  143. Codec ID                                 : S_HDMV/PGS
  144. Codec ID/Info                            : Picture based subtitle format used on BDs/HD-DVDs
  145. Duration                                 : 1 h 29 min
  146. Bit rate                                 : 30.5 kb/s
  147. Count of elements                        : 1912
  148. Stream size                              : 19.5 MiB (0%)
  149. Title                                    : ENG
  150. Language                                 : English
  151. Default                                  : No
  152. Forced                                   : No
  153. Original source medium                   : Blu-ray
  154. Menu
  155. 00:00:00.000                             : en:Chapter 01
  156. 00:03:03.016                             : en:Chapter 02
  157. 00:09:49.964                             : en:Chapter 03
  158. 00:15:43.817                             : en:Chapter 04
  159. 00:19:43.223                             : en:Chapter 05
  160. 00:26:55.280                             : en:Chapter 06
  161. 00:31:44.694                             : en:Chapter 07
  162. 00:38:54.248                             : en:Chapter 08
  163. 00:42:02.686                             : en:Chapter 09
  164. 00:46:00.090                             : en:Chapter 10
  165. 00:49:31.051                             : en:Chapter 11
  166. 00:51:41.056                             : en:Chapter 12
  167. 01:02:08.975                             : en:Chapter 13
  168. 01:06:44.500                             : en:Chapter 14
  169. 01:14:23.083                             : en:Chapter 15
  170. 01:17:40.364                             : en:Chapter 16
  171. 01:20:19.231                             : en:Chapter 17
  172. 01:27:46.594                             : en:Chapter 18
  173. 01:32:24.539                             : en:Chapter 19



此处一般会放置磁力链或种子下载链接,不过此链接需要注册会员才能看到,点击“立即注册”
磁力链下载【下载链接仅对注册会员开放,登陆后可见】
BT9527电影天堂 1、BT9527电影天堂提供的BT文件均来源于互联网抓取,只供网友学习交流、技术提升使用。
2、我们遵守BitTorrent点对点协议原则,任何版权问题请联系原资源发布商,我们不处理任何版权纠纷,谢谢!如有争议请联系邮箱:BT9527#hotmail.com(#换成@)
3、如果您发现某页面或地址有错误,请联系站长邮箱BT9527#hotmail.com(#换成@),我们会尽快处理。您的热心是对BT9527电影天堂最大的支持。
4、本站建议去正规影院观看电影以支持电影行业发展。
最新回复 (0)

你可以在 登录 or 注册 后,对此帖发表评论!

返回