暗夜博士:莫比亚斯[简繁英字幕].Morbius.2022.BluRay.1080p.x265.10bit.DDP5.1-MiniHD 7.79GB

版主小s 3月前 211

✔资源类型:暂未分类   ✔电影年份:2022   ✔电影地区:欧美   ✔电影分类:动作

◎译  名 暗夜博士:莫比亚斯 / 莫比亚斯 / 魔比煞(港) / 魔比斯(台) / 莫比亚斯:暗夜博士 / 吸血鬼莫比亚斯 / Morbius the Living Vampire
◎片  名 Morbius
◎年  代 2022
◎产  地 美国
◎类  别 动作 / 科幻 / 惊悚 / 恐怖 / 冒险
◎语  言 英语 / 西班牙语 / 俄语
◎上映日期 2022-04-01(美国)
◎IMDb链接 https://www.imdb.com/title/tt5108870/
◎豆瓣评分 5.7/10 (28384人评价)
◎豆瓣链接 https://movie.douban.com/subject/27199850/
◎片  长 104分钟
◎导  演 丹尼尔·伊斯皮诺萨 Daniel Espinosa (id:1000735)
◎编  剧 马特·萨兹马 Matt Sazama (id:1340742)
       伯克·沙普利斯 Burk Sharpless (id:1340743)
       罗伊·托马斯 Roy Thomas (id:1042277)
       吉尔·凯恩 Gil Kane (id:1112670)
◎演  员 杰瑞德·莱托 Jared Leto (id:1013764)
       马特·史密斯 Matt Smith (id:1197648)
       阿德里娅·阿霍纳 Adria Arjona (id:1348880)
       杰瑞德·哈里斯 Jared Harris (id:1049700)
       泰瑞斯·吉布森 Tyrese Gibson (id:1010486)
       艾尔·马德里加尔 Al Madrigal (id:1433413)
       迈克尔·基顿 Michael Keaton (id:1049486)
       查理·肖特韦尔 Charlie Shotwell (id:1363353)
       汤姆·福布斯 Tom Forbes (id:1434668)
       克拉拉·罗萨杰 Clara Rosager (id:1411126)
       克里·约翰逊 Corey Johnson (id:1045054)
       宾利·卡鲁 Bentley Kalu (id:1340239)
       阿奇·雷诺 Archie Renaux (id:1426494)
       乔乔·马卡里 Jojo Macari (id:1419156)
       亚伯拉罕·波波拉 Abraham Popoola (id:1457672)
       巴里·艾尔德 Barry Aird (id:1368194)
       克里斯·雷曼 Chris Ryman (id:1192122)
       马诺伊·阿南德 Manoj Anand (id:1395012)
       卡德罗莎·奥娜·卡罗尔  (id:1459808)
       露丝·霍洛克斯 Ruth Horrocks (id:1397361)
       贝恩·科拉科 Bern Colla?o (id:1394212)
       丹尼尔·厄根 Daniel Eghan (id:1367202)
       菲利普·加斯科因 Philip Gascoyne (id:1443992)
       通恰伊·古奈什 Tuncay Gunes (id:1391308)
       豪尔赫·莱昂·马丁内斯 Jorge Leon Martinez (id:1340070)
       尼克·欧文福特 Nick Owenford (id:1362807)
       贾格·帕特尔 Jag Patel (id:1392994)
       黛博拉·洛克 Deborah Rock (id:1395006)
       阿图尔·夏尔马 Atul Sharma (id:1397360)
       戴维娜·西塔拉姆 Davina Sitaram (id:1407303)
       吉米·斯达 Jimmy Star (id:1273873)
       斯图尔特·惠兰 Stuart Whelan (id:1447200)
       亚当·柯林斯 Adam Collins (id:1413373)
       迪索·拉莫斯 Diezel Ramos (id:1341036)
       J·K·西蒙斯 J.K. Simmons (id:1147911)
       伊斯雷尔·鲁兹 Israel Ruiz (id:1199375)
       辛迪·埃文斯 Cindy Evans (id:1427039)

◎简  介
  《暗夜博士:莫比亚斯》将首次把漫威宇宙中最另类的暗黑超级英雄莫比亚斯呈现于大银幕。由奥斯卡最佳男配得主杰瑞德·莱托饰演的莫比亚斯博士身患一种罕见的血液疾病,命不久矣的他决心找到治疗方法拯救其他同病患者。为此,他孤注一掷试图根除疾病。一开始一切似乎都成功了,但他的内心深处有一股黑暗却无端释放。善念能否压制住邪恶,还是莫比亚斯会屈服于这神秘的欲望?
  1. ##### MediaInfo ######
  2. General
  3. Unique ID                                : 70328416394612790817676621132187041162 (0x34E8C2A3845C33D0FD9D30F5E36BFD8A)
  4. Complete name                            : Morbius.2022.BluRay.1080p.x265.10bit.DDP5.1-MiniHD.mkv
  5. Format                                   : Matroska
  6. Format version                           : Version 4
  7. File size                                : 7.79 GiB
  8. Duration                                 : 1 h 44 min
  9. Overall bit rate                         : 10.7 Mb/s
  10. Movie name                               : Morbius.2022.BluRay.1080p.x265.10bit.DDP5.1.MNHD-FRDS
  11. Encoded date                             : UTC 2022-06-12 11:00:39
  12. Writing application                      : mkvmerge v66.0.0 ('Josie') 64-bit
  13. Writing library                          : libebml v1.4.2 + libmatroska v1.6.4
  14. Cover                                    : Yes
  15. Attachments                              : cover.jpg
  16. Video
  17. ID                                       : 1
  18. Format                                   : HEVC
  19. Format/Info                              : High Efficiency Video Coding
  20. Format profile                           : Main 10@L5.1@High
  21. Codec ID                                 : V_MPEGH/ISO/HEVC
  22. Duration                                 : 1 h 44 min
  23. Bit rate                                 : 9 613 kb/s
  24. Width                                    : 1 912 pixels
  25. Height                                   : 804 pixels
  26. Display aspect ratio                     : 2.40:1
  27. Frame rate mode                          : Constant
  28. Frame rate                               : 23.976 (24000/1001/53354) FPS
  29. Color space                              : YUV
  30. Chroma subsampling                       : 4:2:0
  31. Bit depth                                : 10 bits
  32. Bits/(Pixel*Frame)                       : 0.261
  33. Stream size                              : 7.00 GiB (90%)
  34. Writing library                          : x265 3.5+29-3415705dd:[Windows][MSVC 1930][64 bit] 10bit
  35. Encoding settings                        : cpuid=533541111039 / frame-threads=5 / numa-pools=32 / wpp / pmode / no-pme / no-psnr / no-ssim / log-level=2 / input-csp=1 / input-res=1912x804 / interlace=0 / total-frames=149892 / level-idc=0 / high-tier=1 / uhd-bd=0 / ref=6 / no-allow-non-conformance / no-repeat-headers / annexb / no-aud / no-eob / no-eos / no-hrd / info / hash=0 / no-temporal-layers / no-open-gop / min-keyint=1 / keyint=250 / gop-lookahead=0 / bframes=8 / b-adapt=2 / b-pyramid / bframe-bias=0 / rc-lookahead=100 / lookahead-slices=0 / NTMzNTQ=uuDQuD2mJt9fsCf / scenecut=40 / no-hist-scenecut / radl=0 / no-splice / no-intra-refresh / ctu=32 / min-cu-size=8 / no-rect / no-amp / max-tu-size=32 / tu-inter-depth=4 / tu-intra-depth=4 / limit-tu=0 / rdoq-level=2 / dynamic-rd=0.00 / no-ssim-rd / signhide / no-tskip / nr-intra=0 / nr-inter=0 / no-constrained-intra / no-strong-intra-smoothing / max-merge=5 / limit-refs=0 / no-limit-modes / me=3 / subme=7 / merange=57 / temporal-mvp / no-frame-dup / no-hme / weightp / weightb / no-analyze-src-pics / deblock=-3:-3 / no-sao / no-sao-non-deblock / rd=4 / selective-sao=0 / no-early-skip / no-rskip / no-fast-intra / no-tskip-fast / no-cu-lossless / b-intra / no-splitrd-skip / rdpenalty=0 / psy-rd=1.50 / psy-rdoq=1.00 / no-rd-refine / no-lossless / cbqpoffs=-2 / crqpoffs=-2 / rc=crf / crf=19.0 / qcomp=0.65 / qpstep=4 / stats-write=0 / stats-read=0 / vbv-maxrate=160000 / vbv-bufsize=160000 / vbv-init=0.9 / min-vbv-fullness=50.0 / max-vbv-fullness=80.0 / crf-max=0.0 / crf-min=0.0 / ipratio=1.30 / pbratio=1.20 / aq-mode=1 / aq-strength=1.00 / no-cutree / zone-count=0 / no-strict-cbr / qg-size=8 / no-rc-grain / qpmax=69 / qpmin=0 / no-const-vbv / sar=0 / overscan=0 / videoformat=5 / range=0 / colorprim=1 / transfer=1 / colormatrix=1 / chromaloc=0 / display-window=0 / cll=0,0 / min-luma=0 / max-luma=1023 / log2-max-poc-lsb=8 / vui-timing-info / vui-hrd-info / slices=1 / no-opt-qp-pps / no-opt-ref-list-length-pps / no-multi-pass-opt-rps / scenecut-bias=0.05 / hist-threshold=0.03 / no-opt-cu-delta-qp / no-aq-motion / no-hdr10 / no-hdr10-opt / no-dhdr10-opt / no-idr-recovery-sei / analysis-reuse-level=0 / analysis-save-reuse-level=0 / analysis-load-reuse-level=0 / scale-factor=0 / refine-intra=0 / refine-inter=0 / refine-mv=1 / refine-ctu-distortion=0 / no-limit-sao / ctu-info=0 / no-lowpass-dct / refine-analysis-type=0 / copy-pic=1 / max-ausize-factor=1.0 / no-dynamic-refine / no-single-sei / no-hevc-aq / no-svt / no-field / qp-adaptation-range=1.00 / scenecut-aware-qp=0conformance-window-offsets / right=0 / bottom=0 / NTMzNTQ= / decoder-max-rate=0 / no-vbv-live-multi-pass
  36. Default                                  : Yes
  37. Forced                                   : No
  38. Color range                              : Limited
  39. Color primaries                          : BT.709
  40. Transfer characteristics                 : BT.709
  41. Matrix coefficients                      : BT.709
  42. Audio
  43. ID                                       : 2
  44. Format                                   : E-AC-3
  45. Format/Info                              : Enhanced AC-3
  46. Commercial name                          : Dolby Digital Plus
  47. Codec ID                                 : A_EAC3
  48. Duration                                 : 1 h 44 min
  49. Bit rate mode                            : Constant
  50. Bit rate                                 : 1 024 kb/s
  51. Channel(s)                               : 6 channels
  52. Channel layout                           : L R C LFE Ls Rs
  53. Sampling rate                            : 48.0 kHz
  54. Frame rate                               : 31.250 FPS (1536 SPF)
  55. Compression mode                         : Lossy
  56. Stream size                              : 763 MiB (10%)
  57. Language                                 : English
  58. Service kind                             : Complete Main
  59. Default                                  : Yes
  60. Forced                                   : No
  61. Text #1
  62. ID                                       : 3
  63. Format                                   : PGS
  64. Muxing mode                              : zlib
  65. Codec ID                                 : S_HDMV/PGS
  66. Codec ID/Info                            : Picture based subtitle format used on BDs/HD-DVDs
  67. Duration                                 : 1 h 37 min
  68. Bit rate                                 : 35.8 kb/s
  69. Count of elements                        : 2398
  70. Stream size                              : 24.9 MiB (0%)
  71. Title                                    : CHS&ENG
  72. Language                                 : Chinese
  73. Default                                  : Yes
  74. Forced                                   : No
  75. Text #2
  76. ID                                       : 4
  77. Format                                   : PGS
  78. Muxing mode                              : zlib
  79. Codec ID                                 : S_HDMV/PGS
  80. Codec ID/Info                            : Picture based subtitle format used on BDs/HD-DVDs
  81. Duration                                 : 1 h 37 min
  82. Bit rate                                 : 23.5 kb/s
  83. Count of elements                        : 2398
  84. Stream size                              : 16.3 MiB (0%)
  85. Title                                    : CHS
  86. Language                                 : Chinese
  87. Default                                  : No
  88. Forced                                   : No
  89. Text #3
  90. ID                                       : 5
  91. Format                                   : PGS
  92. Muxing mode                              : zlib
  93. Codec ID                                 : S_HDMV/PGS
  94. Codec ID/Info                            : Picture based subtitle format used on BDs/HD-DVDs
  95. Duration                                 : 1 h 37 min
  96. Bit rate                                 : 36.4 kb/s
  97. Count of elements                        : 2398
  98. Stream size                              : 25.3 MiB (0%)
  99. Title                                    : CHT&ENG
  100. Language                                 : Chinese
  101. Default                                  : No
  102. Forced                                   : No
  103. Text #4
  104. ID                                       : 6
  105. Format                                   : PGS
  106. Muxing mode                              : zlib
  107. Codec ID                                 : S_HDMV/PGS
  108. Codec ID/Info                            : Picture based subtitle format used on BDs/HD-DVDs
  109. Duration                                 : 1 h 37 min
  110. Bit rate                                 : 24.0 kb/s
  111. Count of elements                        : 2398
  112. Stream size                              : 16.7 MiB (0%)
  113. Title                                    : CHT
  114. Language                                 : Chinese
  115. Default                                  : No
  116. Forced                                   : No
  117. Text #5
  118. ID                                       : 7
  119. ID in the original source medium         : 4608 (0x1200)
  120. Format                                   : PGS
  121. Muxing mode                              : zlib
  122. Codec ID                                 : S_HDMV/PGS
  123. Codec ID/Info                            : Picture based subtitle format used on BDs/HD-DVDs
  124. Duration                                 : 1 h 38 min
  125. Bit rate                                 : 29.0 kb/s
  126. Count of elements                        : 2323
  127. Stream size                              : 20.5 MiB (0%)
  128. Title                                    : ENG
  129. Language                                 : English
  130. Default                                  : No
  131. Forced                                   : No
  132. Original source medium                   : Blu-ray
  133. Menu
  134. 00:00:00.000                             : en:Chapter 01
  135. 00:05:06.931                             : en:Chapter 02
  136. 00:10:15.823                             : en:Chapter 03
  137. 00:16:57.349                             : en:Chapter 04
  138. 00:21:36.753                             : en:Chapter 05
  139. 00:27:58.385                             : en:Chapter 06
  140. 00:32:58.476                             : en:Chapter 07
  141. 00:38:04.156                             : en:Chapter 08
  142. 00:43:17.761                             : en:Chapter 09
  143. 00:48:58.101                             : en:Chapter 10
  144. 00:55:10.557                             : en:Chapter 11
  145. 01:01:11.876                             : en:Chapter 12
  146. 01:05:28.424                             : en:Chapter 13
  147. 01:13:07.049                             : en:Chapter 14
  148. 01:20:06.384                             : en:Chapter 15
  149. 01:26:32.729                             : en:Chapter 16



此处一般会放置磁力链或种子下载链接,不过此链接需要注册会员才能看到,点击“立即注册”
磁力链下载【下载链接仅对注册会员开放,登陆后可见】
BT9527电影天堂 1、BT9527电影天堂提供的BT文件均来源于互联网抓取,只供网友学习交流、技术提升使用。
2、我们遵守BitTorrent点对点协议原则,任何版权问题请联系原资源发布商,我们不处理任何版权纠纷,谢谢!如有争议请联系邮箱:BT9527#hotmail.com(#换成@)
3、如果您发现某页面或地址有错误,请联系站长邮箱BT9527#hotmail.com(#换成@),我们会尽快处理。您的热心是对BT9527电影天堂最大的支持。
4、本站建议去正规影院观看电影以支持电影行业发展。
最新回复 (0)

你可以在 登录 or 注册 后,对此帖发表评论!

返回
发新帖