所有邪佞之人[简体字幕].All.The.Devil's.Men.2018.BluRay.1080p.x265.10bit-MiniHD 5.70GB

版主小s 10天前 118

✔资源类型:暂未分类   ✔电影年份:2018   ✔电影地区:欧美   ✔电影分类:动作

◎译  名 所有邪佞之人 / 恶魔突袭队
◎片  名 All the Devil's Men
◎年  代 2018
◎产  地 英国
◎类  别 动作
◎语  言 英语
◎上映日期 2018-12-07(美国)
◎IMDb链接 https://www.imdb.com/title/tt6012244/
◎豆瓣评分 6.4/10 (3308人评价)
◎豆瓣链接 https://movie.douban.com/subject/27107691/
◎片  长 99分钟
◎导  演 马修·霍普 Matthew Hope (id:1408776)
◎编  剧 马修·霍普 Matthew Hope (id:1408776)
◎演  员 米洛·吉布森 Milo Gibson (id:1365707)
       西尔维娅·侯克斯 Sylvia Hoeks (id:1018643)
       威廉·菲克纳 William Fichtner (id:1036360)
       艾略特·科万 Elliot Cowan (id:1027341)
       格本加·阿金纳格贝 Gbenga Akinnagbe (id:1190738)
       约瑟夫·米尔森 Joseph Millson (id:1337568)
       佩里·菲茨帕特里克 Perry Fitzpatrick (id:1408777)
       本·洛伊德·霍尔姆斯 Ben Loyd-Holmes (id:1243453)
       雅沃尔·巴哈罗夫 Yavor Baharov (id:1334425)
       安·阿克因 Ann Akinjirin (id:1408778)
       明格斯·约翰斯顿 Mingus Johnston (id:1329877)
       里纳特·希什马塔林 Rinat Khismatouline (id:1372677)
       亚森·阿图 Yasen Atour (id:1346482)

◎简  介
  饱受战争创伤的雇佣赏金猎人柯林斯(米诺·吉布森 饰),被迫前往伦敦,追捕一名被指认变节的中情局特工,并欲破获纠缠其间的俄罗斯核弹头与金钱交易案件……
  1. ##### MediaInfo ######
  2. General
  3. Unique ID                                : 94283190608375480168425517720513075262 (0x46EE48317279E54C24F0D78B5D70D83E)
  4. Complete name                            : All.The.Devil's.Men.2018.BluRay.1080p.x265.10bit-MiniHD.mkv
  5. Format                                   : Matroska
  6. Format version                           : Version 4
  7. File size                                : 5.70 GiB
  8. Duration                                 : 1 h 39 min
  9. Overall bit rate                         : 8 180 kb/s
  10. Encoded date                             : UTC 2022-05-29 03:05:42
  11. Writing application                      : mkvmerge v68.0.0 ('The Curtain') 64-bit
  12. Writing library                          : libebml v1.4.2 + libmatroska v1.6.4
  13. Video
  14. ID                                       : 1
  15. Format                                   : HEVC
  16. Format/Info                              : High Efficiency Video Coding
  17. Format profile                           : Main 10@L5@High
  18. Codec ID                                 : V_MPEGH/ISO/HEVC
  19. Duration                                 : 1 h 39 min
  20. Bit rate                                 : 7 521 kb/s
  21. Width                                    : 1 920 pixels
  22. Height                                   : 808 pixels
  23. Display aspect ratio                     : 2.40:1
  24. Frame rate mode                          : Constant
  25. Frame rate                               : 24.000 FPS
  26. Color space                              : YUV
  27. Chroma subsampling                       : 4:2:0
  28. Bit depth                                : 10 bits
  29. Bits/(Pixel*Frame)                       : 0.202
  30. Stream size                              : 5.24 GiB (92%)
  31. Writing library                          : x265 3.5+20-17839cc0d:[Windows][GCC 11.2.0][64 bit] 10bit
  32. Encoding settings                        : cpuid=533541111039 / frame-threads=5 / numa-pools=24,24 / wpp / no-pmode / no-pme / no-psnr / no-ssim / log-level=2 / input-csp=1 / input-res=1920x808 / interlace=0 / total-frames=143550 / level-idc=0 / high-tier=1 / uhd-bd=0 / ref=5 / no-allow-non-conformance / no-repeat-headers / annexb / no-aud / no-eob / no-eos / no-hrd / info / hash=0 / no-temporal-layers / no-open-gop / min-keyint=24 / keyint=250 / gop-lookahead=0 / bframes=9 / b-adapt=2 / b-pyramid / bframe-bias=0 / rc-lookahead=60 / lookahead-slices=0 / NTMzNTQ=uuDQuD2mJt9fsCf / scenecut=40 / no-hist-scenecut / radl=0 / no-splice / no-intra-refresh / ctu=32 / min-cu-size=8 / no-rect / no-amp / max-tu-size=32 / tu-inter-depth=4 / tu-intra-depth=4 / limit-tu=0 / rdoq-level=2 / dynamic-rd=0.00 / no-ssim-rd / signhide / no-tskip / nr-intra=0 / nr-inter=0 / no-constrained-intra / no-strong-intra-smoothing / max-merge=5 / limit-refs=0 / no-limit-modes / me=3 / subme=5 / merange=57 / temporal-mvp / no-frame-dup / no-hme / weightp / weightb / no-analyze-src-pics / deblock=-1:-1 / no-sao / no-sao-non-deblock / rd=4 / selective-sao=0 / no-early-skip / no-rskip / no-fast-intra / no-tskip-fast / no-cu-lossless / b-intra / no-splitrd-skip / rdpenalty=0 / psy-rd=2.00 / psy-rdoq=5.00 / no-rd-refine / no-lossless / cbqpoffs=0 / crqpoffs=0 / rc=crf / crf=20.0 / qcomp=0.70 / qpstep=4 / stats-write=0 / stats-read=0 / vbv-maxrate=100000 / vbv-bufsize=100000 / vbv-init=0.9 / min-vbv-fullness=50.0 / max-vbv-fullness=80.0 / crf-max=0.0 / crf-min=0.0 / ipratio=1.40 / pbratio=1.30 / aq-mode=1 / aq-strength=0.90 / no-cutree / zone-count=0 / no-strict-cbr / qg-size=32 / no-rc-grain / qpmax=69 / qpmin=0 / no-const-vbv / sar=0 / overscan=0 / videoformat=5 / range=0 / colorprim=1 / transfer=1 / colormatrix=1 / chromaloc=0 / display-window=0 / cll=0,0 / min-luma=0 / max-luma=1023 / log2-max-poc-lsb=8 / vui-timing-info / vui-hrd-info / slices=1 / no-opt-qp-pps / no-opt-ref-list-length-pps / no-multi-pass-opt-rps / scenecut-bias=0.05 / hist-threshold=0.03 / no-opt-cu-delta-qp / no-aq-motion / no-hdr10 / no-hdr10-opt / no-dhdr10-opt / no-idr-recovery-sei / analysis-reuse-level=0 / analysis-save-reuse-level=0 / analysis-load-reuse-level=0 / scale-factor=0 / refine-intra=0 / refine-inter=0 / refine-mv=1 / refine-ctu-distortion=0 / no-limit-sao / ctu-info=0 / no-lowpass-dct / refine-analysis-type=0 / copy-pic=1 / max-ausize-factor=1.0 / no-dynamic-refine / no-single-sei / no-hevc-aq / no-svt / no-field / qp-adaptation-range=1.00 / scenecut-aware-qp=0conformance-window-offsets / right=0 / bottom=0 / NTMzNTQ= / decoder-max-rate=0 / no-vbv-live-multi-pass
  33. Default                                  : Yes
  34. Forced                                   : No
  35. Color range                              : Limited
  36. Color primaries                          : BT.709
  37. Transfer characteristics                 : BT.709
  38. Matrix coefficients                      : BT.709
  39. Audio
  40. ID                                       : 2
  41. Format                                   : AC-3
  42. Format/Info                              : Audio Coding 3
  43. Commercial name                          : Dolby Digital
  44. Codec ID                                 : A_AC3
  45. Duration                                 : 1 h 39 min
  46. Bit rate mode                            : Constant
  47. Bit rate                                 : 640 kb/s
  48. Channel(s)                               : 6 channels
  49. Channel layout                           : L R C LFE Ls Rs
  50. Sampling rate                            : 48.0 kHz
  51. Frame rate                               : 31.250 FPS (1536 SPF)
  52. Compression mode                         : Lossy
  53. Stream size                              : 456 MiB (8%)
  54. Language                                 : English
  55. Service kind                             : Complete Main
  56. Default                                  : Yes
  57. Forced                                   : No
  58. Text
  59. ID                                       : 3
  60. ID in the original source medium         : 4611 (0x1203)
  61. Format                                   : PGS
  62. Muxing mode                              : zlib
  63. Codec ID                                 : S_HDMV/PGS
  64. Codec ID/Info                            : Picture based subtitle format used on BDs/HD-DVDs
  65. Duration                                 : 1 h 30 min
  66. Bit rate                                 : 34.7 kb/s
  67. Count of elements                        : 1366
  68. Stream size                              : 22.4 MiB (0%)
  69. Title                                    : chs&eng
  70. Language                                 : Chinese
  71. Default                                  : Yes
  72. Forced                                   : No
  73. Original source medium                   : Blu-ray
  74. Menu
  75. 00:00:00.000                             : en:Chapter01
  76. 00:01:01.833                             : en:Chapter02
  77. 00:09:57.541                             : en:Chapter03
  78. 00:20:02.875                             : en:Chapter04
  79. 00:25:24.750                             : en:Chapter05
  80. 00:35:17.958                             : en:Chapter06
  81. 00:42:27.291                             : en:Chapter07
  82. 00:51:25.000                             : en:Chapter08
  83. 00:57:41.125                             : en:Chapter09
  84. 01:05:31.458                             : en:Chapter10
  85. 01:17:21.708                             : en:Chapter11
  86. 01:25:25.041                             : en:Chapter12
  87. 01:32:52.833                             : en:Chapter13



此处一般会放置磁力链或种子下载链接,不过此链接需要注册会员才能看到,点击“立即注册”
磁力链下载【下载链接仅对注册会员开放,登陆后可见】
BT9527电影天堂 1、BT9527电影天堂提供的BT文件均来源于互联网抓取,只供网友学习交流、技术提升使用。
2、我们遵守BitTorrent点对点协议原则,任何版权问题请联系原资源发布商,我们不处理任何版权纠纷,谢谢!如有争议请联系邮箱:BT9527#hotmail.com(#换成@)
3、如果您发现某页面或地址有错误,请联系站长邮箱BT9527#hotmail.com(#换成@),我们会尽快处理。您的热心是对BT9527电影天堂最大的支持。
4、本站建议去正规影院观看电影以支持电影行业发展。
最新回复 (0)

你可以在 登录 or 注册 后,对此帖发表评论!

返回
发新帖