忠犬[简繁英字幕].Dog.2022.BluRay.1080p.x265.10bit.DDP5.1.L-MiniHD 5.13GB

版主小s 3月前 171

✔资源类型:暂未分类   ✔电影年份:2022   ✔电影地区:欧美   ✔电影分类:喜剧

◎译  名 忠犬 / 逍遥上路(台)
◎片  名 Dog
◎年  代 2022
◎产  地 美国
◎类  别 喜剧
◎语  言 英语
◎上映日期 2022-02-18(美国)
◎IMDb链接 https://www.imdb.com/title/tt11252248/
◎豆瓣评分 6.7/10 (2173人评价)
◎豆瓣链接 https://movie.douban.com/subject/34881711/
◎片  长 101分钟
◎导  演 雷德·卡罗林 Reid Carolin (id:1015577)
       查宁·塔图姆 Channing Tatum (id:1031224)
◎编  剧 雷德·卡罗林 Reid Carolin (id:1015577)
       布雷特·罗格里格兹 Brett Rodriguez  (id:1468368)
       查宁·塔图姆 Channing Tatum (id:1031224)
◎演  员 查宁·塔图姆 Channing Tatum (id:1031224)
       简·亚当斯 Jane Adams (id:1060981)
       凯文·纳什 Kevin Nash (id:1010684)
       考莉安卡·基尔彻 Q'orianka Kilcher (id:1103825)
       伊桑·苏普利 Ethan Suplee (id:1017960)
       卢克·福布斯 Luke Forbes  (id:1468370)
       罗尼·吉恩·贝尔维斯 Ronnie Gene Blevins (id:1018380)
       阿奎拉·佐尔 Aqueela Zoll (id:1345321)
       尼克尔·拉里贝特 Nicole LaLiberte (id:1329074)
       凯登·博伊德 Cayden Boyd (id:1221382)
       斯凯勒·乔伊 Skyler Joy (id:1440759)
       特伦特·布克斯顿 Trent Buxton (id:1428355)
       达伦·凯兰 Darren Keilan (id:1386093)
       内雷达·贝加 Neraida Bega (id:1457411)
       汤姆·贝耶 Tom Beyer (id:1339511)
       蒂莫西·尤里齐 Timothy Eulich (id:1356398)
       裘斯 B.詹哈迪 Junes B. Zahdi (id:1227159)
       布雷特·霍兰德 Brett Holland (id:1315711)
       安德鲁·康斯坦丁尼 Andrew Constantini (id:1430738)
       克里斯·博登 Chris Borden (id:1268460)
       托马斯·纽曼 Thomas Newman (id:1027939)

◎简  介
  剧情讲述美国陆军游骑兵布里格(查宁·塔图姆 饰)的任务是将比利时牧羊军犬露露从路易斯–麦克乔德联合基地沿太平洋海岸及时带到亚利桑那州诺加里斯,以便及时参加露露训导员的葬礼,一路上人狗间培养出了深刻的友谊。
  1. ##### MediaInfo ######
  2. General
  3. Unique ID                                : 125116680771905042343760616882589919397 (0x5E2098A0D4E2084A7EE01B41072BE8A5)
  4. Complete name                            : Dog.2022.BluRay.1080p.x265.10bit.DDP5.1.L-MiniHD.mkv
  5. Format                                   : Matroska
  6. Format version                           : Version 4
  7. File size                                : 5.13 GiB
  8. Duration                                 : 1 h 41 min
  9. Overall bit rate                         : 7 247 kb/s
  10. Movie name                               : Dog 2022 BluRay 1080p - FRDS
  11. Encoded date                             : UTC 2022-05-28 15:41:56
  12. Writing application                      : mkvmerge v67.0.0 ('Under Stars') 64-bit
  13. Writing library                          : libebml v1.4.2 + libmatroska v1.6.4
  14. Cover                                    : Yes
  15. Attachments                              : cover.jpg
  16. Video
  17. ID                                       : 1
  18. Format                                   : HEVC
  19. Format/Info                              : High Efficiency Video Coding
  20. Format profile                           : Main 10@L5.1@High
  21. Codec ID                                 : V_MPEGH/ISO/HEVC
  22. Duration                                 : 1 h 41 min
  23. Bit rate                                 : 6 075 kb/s
  24. Width                                    : 1 920 pixels
  25. Height                                   : 800 pixels
  26. Display aspect ratio                     : 2.40:1
  27. Frame rate mode                          : Constant
  28. Frame rate                               : 23.976 (24000/1001/53354) FPS
  29. Color space                              : YUV
  30. Chroma subsampling                       : 4:2:0
  31. Bit depth                                : 10 bits
  32. Bits/(Pixel*Frame)                       : 0.165
  33. Stream size                              : 4.30 GiB (84%)
  34. Writing library                          : x265 3.5+36-9b59d4554:[Windows][MSVC 1931][64 bit] 10bit
  35. Encoding settings                        : cpuid=533541049583 / frame-threads=5 / numa-pools=20,20,20,20 / wpp / pmode / no-pme / no-psnr / no-ssim / log-level=2 / input-csp=1 / input-res=1920x800 / interlace=0 / total-frames=145821 / level-idc=51 / high-tier=1 / uhd-bd=0 / ref=5 / no-allow-non-conformance / no-repeat-headers / annexb / no-aud / no-eob / no-eos / no-hrd / info / hash=0 / no-temporal-layers / no-open-gop / min-keyint=1 / keyint=250 / gop-lookahead=0 / bframes=8 / b-adapt=2 / b-pyramid / bframe-bias=0 / rc-lookahead=100 / lookahead-slices=0 / NTMzNTQ=uuDQuD2mJt9fsCf / scenecut=40 / no-hist-scenecut / radl=0 / no-splice / no-intra-refresh / ctu=32 / min-cu-size=8 / no-rect / no-amp / max-tu-size=32 / tu-inter-depth=4 / tu-intra-depth=4 / limit-tu=0 / rdoq-level=2 / dynamic-rd=0.00 / no-ssim-rd / signhide / tskip / nr-intra=0 / nr-inter=0 / no-constrained-intra / no-strong-intra-smoothing / max-merge=5 / limit-refs=0 / no-limit-modes / me=3 / subme=7 / merange=57 / temporal-mvp / no-frame-dup / no-hme / weightp / weightb / no-analyze-src-pics / deblock=-3:-3 / no-sao / no-sao-non-deblock / rd=4 / selective-sao=0 / no-early-skip / no-rskip / no-fast-intra / no-tskip-fast / no-cu-lossless / b-intra / no-splitrd-skip / rdpenalty=0 / psy-rd=1.50 / psy-rdoq=1.00 / no-rd-refine / no-lossless / cbqpoffs=-2 / crqpoffs=-2 / rc=crf / crf=20.0 / qcomp=0.65 / qpstep=4 / stats-write=0 / stats-read=0 / vbv-maxrate=160000 / vbv-bufsize=160000 / vbv-init=0.9 / min-vbv-fullness=50.0 / max-vbv-fullness=80.0 / crf-max=0.0 / crf-min=0.0 / ipratio=1.30 / pbratio=1.20 / aq-mode=1 / aq-strength=1.00 / no-cutree / zone-count=0 / no-strict-cbr / qg-size=8 / no-rc-grain / qpmax=69 / qpmin=0 / no-const-vbv / sar=0 / overscan=0 / videoformat=5 / range=0 / colorprim=1 / transfer=1 / colormatrix=1 / chromaloc=0 / display-window=0 / cll=0,0 / min-luma=0 / max-luma=1023 / log2-max-poc-lsb=8 / vui-timing-info / vui-hrd-info / slices=1 / no-opt-qp-pps / no-opt-ref-list-length-pps / no-multi-pass-opt-rps / scenecut-bias=0.05 / hist-threshold=0.03 / no-opt-cu-delta-qp / no-aq-motion / no-hdr10 / no-hdr10-opt / no-dhdr10-opt / no-idr-recovery-sei / analysis-reuse-level=0 / analysis-save-reuse-level=0 / analysis-load-reuse-level=0 / scale-factor=0 / refine-intra=0 / refine-inter=0 / refine-mv=1 / refine-ctu-distortion=0 / no-limit-sao / ctu-info=0 / no-lowpass-dct / refine-analysis-type=0 / copy-pic=1 / max-ausize-factor=1.0 / no-dynamic-refine / no-single-sei / no-hevc-aq / no-svt / no-field / qp-adaptation-range=1.00 / scenecut-aware-qp=0conformance-window-offsets / right=0 / bottom=0 / NTMzNTQ= / decoder-max-rate=0 / no-vbv-live-multi-pass
  36. Default                                  : Yes
  37. Forced                                   : No
  38. Color range                              : Limited
  39. Color primaries                          : BT.709
  40. Transfer characteristics                 : BT.709
  41. Matrix coefficients                      : BT.709
  42. Audio
  43. ID                                       : 2
  44. Format                                   : E-AC-3
  45. Format/Info                              : Enhanced AC-3
  46. Commercial name                          : Dolby Digital Plus
  47. Codec ID                                 : A_EAC3
  48. Duration                                 : 1 h 41 min
  49. Bit rate mode                            : Constant
  50. Bit rate                                 : 1 024 kb/s
  51. Channel(s)                               : 6 channels
  52. Channel layout                           : L R C LFE Ls Rs
  53. Sampling rate                            : 48.0 kHz
  54. Frame rate                               : 31.250 FPS (1536 SPF)
  55. Compression mode                         : Lossy
  56. Stream size                              : 742 MiB (14%)
  57. Language                                 : English
  58. Service kind                             : Complete Main
  59. Default                                  : Yes
  60. Forced                                   : No
  61. Text #1
  62. ID                                       : 3
  63. ID in the original source medium         : 4608 (0x1200)
  64. Format                                   : PGS
  65. Muxing mode                              : zlib
  66. Codec ID                                 : S_HDMV/PGS
  67. Codec ID/Info                            : Picture based subtitle format used on BDs/HD-DVDs
  68. Duration                                 : 1 h 38 min
  69. Bit rate                                 : 49.5 kb/s
  70. Count of elements                        : 3674
  71. Stream size                              : 35.0 MiB (1%)
  72. Language                                 : English
  73. Default                                  : No
  74. Forced                                   : No
  75. Original source medium                   : Blu-ray
  76. Text #2
  77. ID                                       : 4
  78. ID in the original source medium         : 4609 (0x1201)
  79. Format                                   : PGS
  80. Muxing mode                              : zlib
  81. Codec ID                                 : S_HDMV/PGS
  82. Codec ID/Info                            : Picture based subtitle format used on BDs/HD-DVDs
  83. Duration                                 : 1 h 40 min
  84. Bit rate                                 : 36.8 kb/s
  85. Count of elements                        : 3334
  86. Stream size                              : 26.4 MiB (1%)
  87. Language                                 : Spanish
  88. Default                                  : No
  89. Forced                                   : No
  90. Original source medium                   : Blu-ray
  91. Text #3
  92. ID                                       : 5
  93. ID in the original source medium         : 4610 (0x1202)
  94. Format                                   : PGS
  95. Muxing mode                              : zlib
  96. Codec ID                                 : S_HDMV/PGS
  97. Codec ID/Info                            : Picture based subtitle format used on BDs/HD-DVDs
  98. Duration                                 : 1 h 40 min
  99. Bit rate                                 : 36.2 kb/s
  100. Count of elements                        : 2316
  101. Stream size                              : 26.1 MiB (0%)
  102. Title                                    : CHS
  103. Language                                 : Chinese
  104. Default                                  : Yes
  105. Forced                                   : No
  106. Original source medium                   : Blu-ray
  107. Text #4
  108. ID                                       : 6
  109. ID in the original source medium         : 4611 (0x1203)
  110. Format                                   : PGS
  111. Muxing mode                              : zlib
  112. Codec ID                                 : S_HDMV/PGS
  113. Codec ID/Info                            : Picture based subtitle format used on BDs/HD-DVDs
  114. Duration                                 : 1 h 40 min
  115. Bit rate                                 : 37.2 kb/s
  116. Count of elements                        : 2316
  117. Stream size                              : 26.8 MiB (1%)
  118. Title                                    : CHT
  119. Language                                 : Chinese
  120. Default                                  : Yes
  121. Forced                                   : No
  122. Original source medium                   : Blu-ray
  123. Text #5
  124. ID                                       : 7
  125. ID in the original source medium         : 4612 (0x1204)
  126. Format                                   : PGS
  127. Muxing mode                              : zlib
  128. Codec ID                                 : S_HDMV/PGS
  129. Codec ID/Info                            : Picture based subtitle format used on BDs/HD-DVDs
  130. Duration                                 : 1 h 40 min
  131. Bit rate                                 : 65.2 kb/s
  132. Count of elements                        : 2316
  133. Stream size                              : 47.0 MiB (1%)
  134. Title                                    : Chs&Eng
  135. Language                                 : Chinese
  136. Default                                  : Yes
  137. Forced                                   : No
  138. Original source medium                   : Blu-ray
  139. Text #6
  140. ID                                       : 8
  141. ID in the original source medium         : 4613 (0x1205)
  142. Format                                   : PGS
  143. Muxing mode                              : zlib
  144. Codec ID                                 : S_HDMV/PGS
  145. Codec ID/Info                            : Picture based subtitle format used on BDs/HD-DVDs
  146. Duration                                 : 1 h 40 min
  147. Bit rate                                 : 66.3 kb/s
  148. Count of elements                        : 2316
  149. Stream size                              : 47.7 MiB (1%)
  150. Title                                    : Cht&Eng
  151. Language                                 : Chinese
  152. Default                                  : Yes
  153. Forced                                   : No
  154. Original source medium                   : Blu-ray
  155. Menu
  156. 00:00:00.000                             : en:Chapter 01
  157. 00:09:44.208                             : en:Chapter 02
  158. 00:19:28.125                             : en:Chapter 03
  159. 00:28:47.934                             : en:Chapter 04
  160. 00:36:03.870                             : en:Chapter 05
  161. 00:45:57.629                             : en:Chapter 06
  162. 00:53:16.526                             : en:Chapter 07
  163. 01:03:14.707                             : en:Chapter 08
  164. 01:11:40.754                             : en:Chapter 09
  165. 01:19:09.244                             : en:Chapter 10
  166. 01:28:13.162                             : en:Chapter 11
  167. 01:36:34.205                             : en:Chapter 12



此处一般会放置磁力链或种子下载链接,不过此链接需要注册会员才能看到,点击“立即注册”
磁力链下载【下载链接仅对注册会员开放,登陆后可见】
BT9527电影天堂 1、BT9527电影天堂提供的BT文件均来源于互联网抓取,只供网友学习交流、技术提升使用。
2、我们遵守BitTorrent点对点协议原则,任何版权问题请联系原资源发布商,我们不处理任何版权纠纷,谢谢!如有争议请联系邮箱:BT9527#hotmail.com(#换成@)
3、如果您发现某页面或地址有错误,请联系站长邮箱BT9527#hotmail.com(#换成@),我们会尽快处理。您的热心是对BT9527电影天堂最大的支持。
4、本站建议去正规影院观看电影以支持电影行业发展。
最新回复 (0)

你可以在 登录 or 注册 后,对此帖发表评论!

返回
发新帖