承包商[简体字幕].The.Contractor.2022.BluRay.1080p.x265.10bit.DDP7.1-MiniHD 6.93GB

版主小s 16天前 46

✔资源类型:暂未分类   ✔电影年份:2022   ✔电影地区:欧美   ✔电影分类:动作

◎译  名 承包商 / 救命缉约(台) / 孤佣兵(港) / 暴力行动 / 契约者 / Violence of Action
◎片  名 The Contractor
◎年  代 2022
◎产  地 美国
◎类  别 动作 / 惊悚
◎语  言 英语
◎上映日期 2022-04-01(美国)
◎IMDb链接 https://www.imdb.com/title/tt10323676/
◎豆瓣评分 5.9/10 (5321人评价)
◎豆瓣链接 https://movie.douban.com/subject/33442722/
◎片  长 103分钟
◎导  演 塔里克·萨利赫 Tarik Saleh (id:1296510)
◎编  剧 J·P·戴维斯 J.P. Davis (id:1314254)
◎演  员 克里斯·派恩 Chris Pine (id:1053621)
       基弗·萨瑟兰 Kiefer Sutherland (id:1053575)
       本·福斯特 Ben Foster (id:1040512)
       吉莉安·雅各布斯 Gillian Jacobs (id:1274992)
       埃迪·马森 Eddie Marsan (id:1291072)
       泰特·弗莱彻 Tait Fletcher (id:1389967)
       弗罗里安·穆特鲁 Florian Munteanu (id:1403708)
       法瑞斯·法瑞斯 Fares Fares (id:1045340)
       尼娜·霍斯 Nina Hoss (id:1009688)
       J.D.普拉多 J.D. Pardo (id:1179331)
       阿蜜拉·卡萨 Amira Casar (id:1045238)
       亚力克桑杰·麦沃洛夫 Alexej Manvelov (id:1353382)
       马修·马什 Matthew Marsh (id:1120042)
       泰娜·拉欣 Tyner Rushing (id:1395028)
       帕蒂·舍尔哈斯 Patti Schellhaas (id:1395930)
       乔治·皮斯特拉努 George Pistereanu (id:1367289)
       科里·斯科特·艾伦 Cory Scott Allen (id:1360689)
       里贾纳·陈婷 Regina Ting Chen (id:1357977)
       蒂莫西·卡尔 Timothy Carr (id:1392730)
       金 King (id:1334780)
       山德·托马斯 Sander Thomas (id:1398085)
       杰克琳·怀特 Jaclyn White (id:1440513)

◎简  介
  神秘契约背后隐藏的危机,原来是一场精心策划的致命阴谋。身处异国孤军奋战,该如何杀出重围、活着回家?                                    
                                故事讲述被迫从海军陆战队退伍后,詹姆斯·里德(克里斯·派恩 饰)加入了一个准军事组织来维持生计。第一次执行任务时,里德就在东欧遭到追捕。他必须努力活到足够长的时间才能回家,并找出背叛他的人的真正动机。
  1. ##### MediaInfo ######
  2. General
  3. Unique ID                                : 216492051791630875531402379535913246953 (0xA2DEDA3F3127052747E29360464AE0E9)
  4. Complete name                            : The.Contractor.2022.BluRay.1080p.x265.10bit.DDP7.1-MiniHD.mkv
  5. Format                                   : Matroska
  6. Format version                           : Version 4
  7. File size                                : 6.93 GiB
  8. Duration                                 : 1 h 43 min
  9. Overall bit rate                         : 9 594 kb/s
  10. Encoded date                             : UTC 2022-06-10 02:04:15
  11. Writing application                      : mkvmerge v68.0.0 ('The Curtain') 64-bit
  12. Writing library                          : libebml v1.4.2 + libmatroska v1.6.4
  13. Video
  14. ID                                       : 1
  15. Format                                   : HEVC
  16. Format/Info                              : High Efficiency Video Coding
  17. Format profile                           : Main 10@L5@High
  18. Codec ID                                 : V_MPEGH/ISO/HEVC
  19. Duration                                 : 1 h 43 min
  20. Bit rate                                 : 8 038 kb/s
  21. Width                                    : 1 920 pixels
  22. Height                                   : 804 pixels
  23. Display aspect ratio                     : 2.40:1
  24. Frame rate mode                          : Constant
  25. Frame rate                               : 23.976 (24000/1001/53354) FPS
  26. Color space                              : YUV
  27. Chroma subsampling                       : 4:2:0
  28. Bit depth                                : 10 bits
  29. Bits/(Pixel*Frame)                       : 0.217
  30. Stream size                              : 5.80 GiB (84%)
  31. Writing library                          : x265 3.5+20-17839cc0d:[Windows][GCC 11.2.0][64 bit] 10bit
  32. Encoding settings                        : cpuid=533541111039 / frame-threads=5 / numa-pools=24,24 / wpp / no-pmode / no-pme / no-psnr / no-ssim / log-level=2 / input-csp=1 / input-res=1920x804 / interlace=0 / total-frames=148705 / level-idc=0 / high-tier=1 / uhd-bd=0 / ref=5 / no-allow-non-conformance / no-repeat-headers / annexb / no-aud / no-eob / no-eos / no-hrd / info / hash=0 / no-temporal-layers / no-open-gop / min-keyint=23 / keyint=250 / gop-lookahead=0 / bframes=9 / b-adapt=2 / b-pyramid / bframe-bias=0 / rc-lookahead=60 / lookahead-slices=0 / NTMzNTQ=uuDQuD2mJt9fsCf / scenecut=40 / no-hist-scenecut / radl=0 / no-splice / no-intra-refresh / ctu=32 / min-cu-size=8 / no-rect / no-amp / max-tu-size=32 / tu-inter-depth=4 / tu-intra-depth=4 / limit-tu=0 / rdoq-level=2 / dynamic-rd=0.00 / no-ssim-rd / signhide / no-tskip / nr-intra=0 / nr-inter=0 / no-constrained-intra / no-strong-intra-smoothing / max-merge=5 / limit-refs=0 / no-limit-modes / me=3 / subme=5 / merange=57 / temporal-mvp / no-frame-dup / no-hme / weightp / weightb / no-analyze-src-pics / deblock=-1:-1 / no-sao / no-sao-non-deblock / rd=4 / selective-sao=0 / no-early-skip / no-rskip / no-fast-intra / no-tskip-fast / no-cu-lossless / b-intra / no-splitrd-skip / rdpenalty=0 / psy-rd=2.00 / psy-rdoq=5.00 / no-rd-refine / no-lossless / cbqpoffs=0 / crqpoffs=0 / rc=crf / crf=20.0 / qcomp=0.70 / qpstep=4 / stats-write=0 / stats-read=0 / vbv-maxrate=100000 / vbv-bufsize=100000 / vbv-init=0.9 / min-vbv-fullness=50.0 / max-vbv-fullness=80.0 / crf-max=0.0 / crf-min=0.0 / ipratio=1.40 / pbratio=1.30 / aq-mode=1 / aq-strength=0.90 / no-cutree / zone-count=0 / no-strict-cbr / qg-size=32 / no-rc-grain / qpmax=69 / qpmin=0 / no-const-vbv / sar=0 / overscan=0 / videoformat=5 / range=0 / colorprim=1 / transfer=1 / colormatrix=1 / chromaloc=0 / display-window=0 / cll=0,0 / min-luma=0 / max-luma=1023 / log2-max-poc-lsb=8 / vui-timing-info / vui-hrd-info / slices=1 / no-opt-qp-pps / no-opt-ref-list-length-pps / no-multi-pass-opt-rps / scenecut-bias=0.05 / hist-threshold=0.03 / no-opt-cu-delta-qp / no-aq-motion / no-hdr10 / no-hdr10-opt / no-dhdr10-opt / no-idr-recovery-sei / analysis-reuse-level=0 / analysis-save-reuse-level=0 / analysis-load-reuse-level=0 / scale-factor=0 / refine-intra=0 / refine-inter=0 / refine-mv=1 / refine-ctu-distortion=0 / no-limit-sao / ctu-info=0 / no-lowpass-dct / refine-analysis-type=0 / copy-pic=1 / max-ausize-factor=1.0 / no-dynamic-refine / no-single-sei / no-hevc-aq / no-svt / no-field / qp-adaptation-range=1.00 / scenecut-aware-qp=0conformance-window-offsets / right=0 / bottom=0 / NTMzNTQ= / decoder-max-rate=0 / no-vbv-live-multi-pass
  33. Default                                  : Yes
  34. Forced                                   : No
  35. Color range                              : Limited
  36. Color primaries                          : BT.709
  37. Transfer characteristics                 : BT.709
  38. Matrix coefficients                      : BT.709
  39. Audio
  40. ID                                       : 2
  41. Format                                   : E-AC-3
  42. Format/Info                              : Enhanced AC-3
  43. Commercial name                          : Dolby Digital Plus
  44. Format profile                           : Blu-ray Disc
  45. Codec ID                                 : A_EAC3
  46. Duration                                 : 1 h 43 min
  47. Bit rate mode                            : Constant
  48. Bit rate                                 : 1 536 kb/s
  49. Channel(s)                               : 8 channels
  50. Channel layout                           : L R C LFE Ls Rs Lb Rb
  51. Sampling rate                            : 48.0 kHz
  52. Frame rate                               : 31.250 FPS (1536 SPF)
  53. Compression mode                         : Lossy
  54. Stream size                              : 1.11 GiB (16%)
  55. Language                                 : English
  56. Service kind                             : Complete Main
  57. Default                                  : Yes
  58. Forced                                   : No
  59. Text
  60. ID                                       : 3
  61. ID in the original source medium         : 4613 (0x1205)
  62. Format                                   : PGS
  63. Muxing mode                              : zlib
  64. Codec ID                                 : S_HDMV/PGS
  65. Codec ID/Info                            : Picture based subtitle format used on BDs/HD-DVDs
  66. Duration                                 : 1 h 36 min
  67. Bit rate                                 : 36.9 kb/s
  68. Count of elements                        : 1632
  69. Stream size                              : 25.6 MiB (0%)
  70. Title                                    : chs&eng
  71. Language                                 : Chinese
  72. Default                                  : Yes
  73. Forced                                   : No
  74. Original source medium                   : Blu-ray
  75. Menu
  76. 00:00:00.000                             : Chapter01
  77. 00:08:33.179                             : Chapter02
  78. 00:15:19.043                             : Chapter03
  79. 00:21:55.564                             : Chapter04
  80. 00:28:52.856                             : Chapter05
  81. 00:36:15.882                             : Chapter06
  82. 00:46:04.595                             : Chapter07
  83. 00:53:05.098                             : Chapter08
  84. 00:59:15.343                             : Chapter09
  85. 01:07:16.032                             : Chapter10
  86. 01:13:30.406                             : Chapter11
  87. 01:22:28.234                             : Chapter12
  88. 01:30:48.234                             : Chapter13
  89. 01:37:43.065                             : Chapter14





此处一般会放置磁力链或种子下载链接,不过此链接需要注册会员才能看到,点击“立即注册”
磁力链下载【下载链接仅对注册会员开放,登陆后可见】
BT9527电影天堂 1、BT9527电影天堂提供的BT文件均来源于互联网抓取,只供网友学习交流、技术提升使用。
2、我们遵守BitTorrent点对点协议原则,任何版权问题请联系原资源发布商,我们不处理任何版权纠纷,谢谢!如有争议请联系邮箱:BT9527#hotmail.com(#换成@)
3、如果您发现某页面或地址有错误,请联系站长邮箱BT9527#hotmail.com(#换成@),我们会尽快处理。您的热心是对BT9527电影天堂最大的支持。
4、本站建议去正规影院观看电影以支持电影行业发展。
最新回复 (0)

你可以在 登录 or 注册 后,对此帖发表评论!

返回
发新帖